BitTorrentTracker PerecTracker.org
BitTorrentTracker PerecTracker.org
    
Регистрация  ·  Вход
 
 · 
Забыли пароль?

  • Борсалино и компания / Borsalino & Co. (Жак Дерэ / Jacques Deray) [1974, Франция, Италия, Германия, криминальная драма, BDRip-AVC] 2 х MVO + DVO + Original Fre + Sub Rus

    Ответить на тему
     
    Автор Сообщение

    Columb

    Создавать темы 18-Фев-2014 20:51

           

    [Цитировать]

    Борсалино и компания / Borsalino & Co.-Страна: Франция, Италия, Германия
    Жанр: криминальная драма
    Год выпуска: 1974
    Продолжительность: 01:45:04
    Перевод 1: Профессиональный (многоголосый закадровый) Никитин
    Перевод 2: Профессиональный (двухголосый закадровый) НТВ-Профит
    Перевод 3: Профессиональный (многоголосый закадровый) Останкино
    Оригинальная аудиодорожка: французский
    Cубтитры: русские-Режиссер: Жак Дерэ / Jacques Deray-В ролях:
    Ален Делон / Alain Delon, Риккардо Куччьолла / Riccardo Cucciolla, Райнхард Кольдехофф / Reinhard Kolldehoff, Лионель Витран / Lionel Vitrant, Катрин Рувель / Catherine Rouvel, Даниэль Ивернель / Daniel Ivernel, Андре Фалькон / André Falcon, Адольфо Ластретти / Adolfo Lastretti, Пьер Кулак / Pierre Koulak
    Описание:
    Убит один из королей бандитского Марселя - Франсуа Капелла. Его друг Рок Сиффреди выясняет, что убийство - дело рук некоего Вольпоне, который, опираясь на поддержку парижских политиков и продажных полицейских, пытается установить контроль над Марселем. Сиффреди начинает войну с сицилийцами Вольпоне.-Сэмпл | Кинопоиск-Качество видео: BDRip-AVC
    Формат видео: MKV
    Видео: x264 (High@L4.1); 960x576, Display aspect ratio 1.667:1, 24.000 fps, 2392 Kbps
    Аудио 1: Русский: AC-3; 16 bit 48 Khz; 2.0 ch 192 Kbps; CBR | MVO | "Никитин"
    Аудио 2: Русский: AC-3; 16 bit 48 Khz; 2.0 ch 192 Kbps; CBR | DVO | НТВ-Профит
    Аудио 3: Французский: AC-3; 16 bit 48 Khz; 2.0 ch 192 Kbps; CBR | Original
    Аудио 4: Русский: AC-3; 16 bit 48 Khz; 2.0 ch 192 Kbps; CBR | MVO | Останкино (отдельно)
    Формат субтитров: softsub (SRT)

    MediaInfo

    -

    x264 log

    avs [info]: 960x576p 1:1 @ 24/1 fps (cfr)
    x264 [info]: using SAR=1/1
    x264 [info]: using cpu capabilities: MMX2 SSE2Fast SSSE3 SSE4.2
    x264 [info]: profile High, level 4.1
    x264 [info]: frame I:830 Avg QP:16.10 size: 62361
    x264 [info]: frame P:33744 Avg QP:18.41 size: 25733
    x264 [info]: frame B:116731 Avg QP:20.03 size: 8264
    x264 [info]: consecutive B-frames: 1.4% 3.4% 11.2% 19.6% 18.7% 37.9% 4.7% 1.8% 0.7% 0.2% 0.1% 0.1% 0.0% 0.0% 0.0% 0.0% 0.0%
    x264 [info]: mb I I16..4: 5.0% 78.0% 17.0%
    x264 [info]: mb P I16..4: 0.9% 9.5% 1.2% P16..4: 34.6% 39.4% 12.1% 0.0% 0.0% skip: 2.2%
    x264 [info]: mb B I16..4: 0.1% 0.9% 0.1% B16..8: 34.5% 22.0% 3.3% direct: 6.6% skip:32.5% L0:42.3% L1:44.8% BI:13.0%
    x264 [info]: 8x8 transform intra:82.1% inter:60.7%
    x264 [info]: direct mvs spatial:98.7% temporal:1.3%
    x264 [info]: coded y,uvDC,uvAC intra: 86.2% 80.6% 56.8% inter: 30.1% 27.5% 10.3%
    x264 [info]: i16 v,h,dc,p: 40% 11% 5% 45%
    x264 [info]: i8 v,h,dc,ddl,ddr,vr,hd,vl,hu: 9% 8% 6% 10% 13% 13% 14% 13% 15%
    x264 [info]: i4 v,h,dc,ddl,ddr,vr,hd,vl,hu: 11% 8% 7% 9% 14% 14% 13% 11% 13%
    x264 [info]: i8c dc,h,v,p: 40% 25% 20% 15%
    x264 [info]: Weighted P-Frames: Y:5.0% UV:1.5%
    x264 [info]: ref P L0: 40.3% 10.7% 17.8% 6.3% 5.7% 3.8% 3.7% 1.9% 2.0% 1.5% 1.6% 1.2% 1.2% 1.0% 1.1% 0.2%
    x264 [info]: ref B L0: 76.1% 10.6% 4.1% 2.2% 1.5% 1.4% 1.0% 0.7% 0.5% 0.5% 0.4% 0.4% 0.3% 0.2%
    x264 [info]: ref B L1: 95.2% 4.8%
    x264 [info]: kb/s:2391.74
    x264 [total]: encoded 151305 frames, 9.67 fps, 2391.74 kb/s
    -General
    Unique ID : 213112488447593980239901735851951957028 (0xA053F8E8CF8CD28DB1DCB7315CB0A424)
    Complete name : Борсалино и компания.1974.BDRip.mkv
    Format : Matroska
    Format version : Version 2
    File size : 2.18 GiB
    Duration : 1h 45mn
    Overall bit rate : 2 970 Kbps
    Movie name : «Борсалино и компания / Borsalino & Co»
    Encoded date : UTC 2014-02-15 19:23:41
    Writing application : mkvmerge v5.8.0 ('No Sleep / Pillow') built on Sep 2 2012 15:37:04
    Writing library : libebml v1.2.3 + libmatroska v1.3.0
    Comment : BDRip-AVC
    Original date released : February 15th 2014
    Encoded by : imgeorgest®
    Video
    ID : 1
    Format : AVC
    Format/Info : Advanced Video Codec
    Format profile : High@L4.1
    Format settings, CABAC : Yes
    Format settings, ReFrames : 15 frames
    Codec ID : V_MPEG4/ISO/AVC
    Duration : 1h 45mn
    Bit rate : 2 392 Kbps
    Width : 960 pixels
    Height : 576 pixels
    Display aspect ratio : 1.667
    Frame rate mode : Constant
    Frame rate : 24.000 fps
    Color space : YUV
    Chroma subsampling : 4:2:0
    Bit depth : 8 bits
    Scan type : Progressive
    Bits/(Pixel*Frame) : 0.180
    Stream size : 1.71 GiB (79%)
    Title : Борсалино и компания / Borsalino & Co.1974
    Writing library : x264 core 130 r2273 b3065e6
    Encoding settings : cabac=1 / ref=15 / deblock=1:-2:-2 / analyse=0x3:0x113 / me=umh / subme=11 / psy=1 / psy_rd=1.00:0.00 / mixed_ref=1 / me_range=48 / chroma_me=1 / trellis=2 / 8x8dct=1 / cqm=0 / deadzone=21,11 / fast_pskip=0 / chroma_qp_offset=-2 / threads=12 / lookahead_threads=3 / sliced_threads=0 / nr=0 / decimate=0 / interlaced=0 / bluray_compat=0 / constrained_intra=0 / bframes=16 / b_pyramid=2 / b_adapt=2 / b_bias=0 / direct=3 / weightb=1 / open_gop=0 / weightp=2 / keyint=250 / keyint_min=24 / scenecut=40 / intra_refresh=0 / rc_lookahead=60 / rc=2pass / mbtree=1 / bitrate=2392 / ratetol=1.0 / qcomp=0.70 / qpmin=0 / qpmax=32 / qpstep=4 / cplxblur=20.0 / qblur=0.5 / vbv_maxrate=50000 / vbv_bufsize=62500 / nal_hrd=none / ip_ratio=1.20 / aq=1:1.00
    Language : French
    Default : Yes
    Forced : No
    Color primaries : BT.709
    Transfer characteristics : BT.709
    Matrix coefficients : BT.709
    Audio #1
    ID : 2
    Format : AC-3
    Format/Info : Audio Coding 3
    Mode extension : CM (complete main)
    Format settings, Endianness : Big
    Codec ID : A_AC3
    Duration : 1h 45mn
    Bit rate mode : Constant
    Bit rate : 192 Kbps
    Channel(s) : 2 channels
    Channel positions : Front: L R
    Sampling rate : 48.0 KHz
    Bit depth : 16 bits
    Compression mode : Lossy
    Stream size : 144 MiB (6%)
    Title : MVO: AC-3; 16 bit 48 Khz; 2.0 ch 192 Kbps; CBR | "Никитин"
    Language : Russian
    Default : Yes
    Forced : No
    Audio #2
    ID : 3
    Format : AC-3
    Format/Info : Audio Coding 3
    Format profile : Dolby Digital
    Mode extension : CM (complete main)
    Format settings, Endianness : Big
    Codec ID : A_AC3
    Duration : 1h 45mn
    Bit rate mode : Constant
    Bit rate : 192 Kbps
    Channel(s) : 2 channels
    Channel positions : Front: L R
    Sampling rate : 48.0 KHz
    Bit depth : 16 bits
    Compression mode : Lossy
    Stream size : 144 MiB (6%)
    Title : DVO: AC-3; 16 bit 48 Khz; 2.0 ch 192 Kbps; CBR | НТВ-Профит
    Language : Russian
    Default : No
    Forced : No
    Audio #3
    ID : 4
    Format : AC-3
    Format/Info : Audio Coding 3
    Mode extension : CM (complete main)
    Format settings, Endianness : Big
    Codec ID : A_AC3
    Duration : 1h 45mn
    Bit rate mode : Constant
    Bit rate : 192 Kbps
    Channel(s) : 2 channels
    Channel positions : Front: L R
    Sampling rate : 48.0 KHz
    Bit depth : 16 bits
    Compression mode : Lossy
    Stream size : 144 MiB (6%)
    Title : AC-3; 16 bit 48 Khz; 2.0 ch 192 Kbps; CBR | Original | fre
    Language : French
    Default : No
    Forced : No
    Text
    ID : 5
    Format : UTF-8
    Codec ID : S_TEXT/UTF8
    Codec ID/Info : UTF-8 Plain Text
    Title : Cубтитры: русские
    Language : Russian
    Default : No
    Forced : No

    Скриншоты

    Скачать .torrent

    Скачать торрент-файл бесплатно и на максимальной скорости!

    Как скачивать? · Что такое торрент? · Рейтинг и ограничения

    !ВНИМАНИЕ!
    Сайт не распространяет и не хранит электронные версии произведений, а занимается лишь лишь предоставлением доступа к создаваемому пользователями каталогу ссылок на торрент-файлы, которые содержат только списки хеш-сумм, убедительная просьба с жалобами обращаться напрямую к пользователю. Файлы для обмена на трекере предоставлены пользователями сайта, и администрация не несёт ответственности за их содержание. Просьба не заливать файлы, защищенные авторскими правами, а также файлы нелегального содержания!

    [Профиль] [ЛС]
    Показать сообщения:    
    Ответить на тему

    Текущее время: Сегодня, в 18:48

    Часовой пояс: GMT + 2



    Вы не можете начинать темы
    Вы не можете отвечать на сообщения
    Вы не можете редактировать свои сообщения
    Вы не можете удалять свои сообщения
    Вы не можете голосовать в опросах
    Вы не можете прикреплять файлы к сообщениям
    Вы не можете скачивать файлы