BitTorrentTracker PerecTracker.org
BitTorrentTracker PerecTracker.org
    
Регистрация  ·  Вход
 
 · 
Забыли пароль?

  • Разрушитель / The Demolisher (Габриэл Каррер / Gabriel Carrer) [2015, Канада, Ужасы, боевик, триллер, HDRip] VO (Мегапыхарь)

    Ответить на тему
     
    Автор Сообщение

    Light

    Создавать темы 25-Май-2016 21:45

           

    [Цитировать]

    Разрушитель / The Demolisher
    Страна: Канада
    Жанр: Ужасы, боевик, триллер
    Год выпуска: 2015
    Продолжительность: 01:25:38
    Перевод: Одноголосый, закадровый (Мегапыхарь)
    Cубтитры: нет
    Режиссер: Габриэл Каррер / Gabriel Carrer
    В ролях: Райан Баррет, Тиана Нори, Джессика Вано, Дункан МакЛеллан, Джеррит Сеперс, Брюс Тернер, Дуан Фрэй, Andrew Bussey, Оуэн Фоусет, Рич Пьёнтковский
    Описание: Брюс, в результате несчастного случая с его женой, начинает смотреть на мир иначе. Он все еще обычный ремонтник, но несправедливость и чувство безысходности толкают его на крайний шаг. Внутренняя ярость вырывается наружу на темных улицах, уводя его все дальше в мир экстремального насилия.
    Сэмпл: https://yadi.sk/i/q2JJnX5NrkEpA
    Качество видео: HDRip
    Формат видео: AVI
    Видео: XviD 73, 720x304, (2,35:1), 23,976 fps, 2267 Кбит/с, 8 бит
    Аудио: Русский (AC-3, 2 ch (Front: L R), 48,0 KHz, 192 Kbps)

    MediaInfo

    Общее
    Полное имя : F:\Видеофильмы\В и д е о\Разрушитель (ужасы боевик 2015г).avi
    Формат : AVI
    Формат/Информация : Audio Video Interleave
    Размер файла : 1,48 Гбайт
    Продолжительность : 1 ч. 25 м.
    Общий поток : 2468 Кбит/сек
    Программа кодирования : VirtualDubMod 1.5.10.3 | www.virtualdub-fr.org || (build 2550/release)
    Библиотека кодирования : VirtualDubMod build 2550/release
    Видео
    Идентификатор : 0
    Формат : MPEG-4 Visual
    Профиль формата : Advanced Simple@L5
    Параметр BVOP формата : 1
    Параметр QPel формата : Нет
    Параметр GMC формата : Без точки перехода
    Параметр матрицы формата : Выборочная
    Идентификатор кодека : XVID
    Идентификатор кодека/Подсказка : XviD
    Продолжительность : 1 ч. 25 м.
    Битрейт : 2267 Кбит/сек
    Ширина : 720 пикселей
    Высота : 304 пикселя
    Соотношение сторон : 2,35:1
    Частота кадров : 23,976 (23976/1000) кадра/сек
    Цветовое пространство : YUV
    Субдискретизация насыщенности : 4:2:0
    Битовая глубина : 8 бит
    Тип развёртки : Прогрессивная
    Метод сжатия : С потерями
    Бит/(Пиксели*Кадры) : 0.432
    Размер потока : 1,36 Гбайт (92%)
    Библиотека кодирования : XviD 73
    Аудио
    Идентификатор : 1
    Формат : AC-3
    Формат/Информация : Audio Coding 3
    Расширение режима : CM (complete main)
    Параметр Endianness формата : Big
    Идентификатор кодека : 2000
    Продолжительность : 1 ч. 25 м.
    Вид битрейта : Постоянный
    Битрейт : 192 Кбит/сек
    Каналы : 2 канала
    Расположение каналов : Front: L R
    Частота : 48,0 КГц
    Частота кадров : 31,250 кадров/сек (1536 spf)
    Метод сжатия : С потерями
    Размер потока : 118 Мбайт (8%)
    Выравнивание : Разделение по промежуткам
    Продолжительность промежутка : 42 мс. (1,00 видеокадр)
    Время предзагрузки промежутка : 500 мс.

    Скриншот c названием фильма

    Скриншоты

    Скачать .torrent

    Скачать торрент-файл бесплатно и на максимальной скорости!

    Как скачивать? · Что такое торрент? · Рейтинг и ограничения

    !ВНИМАНИЕ!
    Сайт не распространяет и не хранит электронные версии произведений, а занимается лишь лишь предоставлением доступа к создаваемому пользователями каталогу ссылок на торрент-файлы, которые содержат только списки хеш-сумм, убедительная просьба с жалобами обращаться напрямую к пользователю. Файлы для обмена на трекере предоставлены пользователями сайта, и администрация не несёт ответственности за их содержание. Просьба не заливать файлы, защищенные авторскими правами, а также файлы нелегального содержания!


    _________________
    [Профиль] [ЛС]
    Показать сообщения:    
    Ответить на тему

    Текущее время: Сегодня, в 12:09

    Часовой пояс: GMT + 2



    Вы не можете начинать темы
    Вы не можете отвечать на сообщения
    Вы не можете редактировать свои сообщения
    Вы не можете удалять свои сообщения
    Вы не можете голосовать в опросах
    Вы не можете прикреплять файлы к сообщениям
    Вы не можете скачивать файлы