BitTorrentTracker PerecTracker.org
BitTorrentTracker PerecTracker.org
    
Регистрация  ·  Вход
 
 · 
Забыли пароль?

  • И грянул шторм / The Finest Hours (Крэйг Гиллеспи / Craig Gillespie ) [2016, США, Боевик, триллер, драма, история, WEB-DL, HD (720p)] DUB + Original + sub (rus)

    Ответить на тему
     
    Автор Сообщение

    rechyn

    Создавать темы 24-Май-2016 21:11

           

    [Цитировать]

    И грянул шторм / The Finest Hours
    «32 survivors, room for 12»
    7.087 / 10 6.80 / 10
    -Год выпуска: 2016
    Страна: США
    Жанр: Боевик, триллер, драма, история
    Продолжительность: 01:57:37
    Перевод: Дублированный (iTunes)
    Оригинальная аудиодорожка: Есть
    Cубтитры: Русские форсированные, Русские
    Режиссёр: Крэйг Гиллеспи
    Сценарий: Скотт Сильвер, Пол Тэймеси, Эрик Джонсон
    Продюсер: Дороти Офиеро, Джеймс Уитакер, Дуглас С. Меррифилд
    Оператор: Хавьер Агирресаробе
    Композитор: Картер Бёруэлл
    Художник: Майкл Коренблит, Уильям Лэдд Скиннер, Луиз Фрогли
    Монтаж: Татьяна С. Ригел
    В ролях: Крис Пайн, Кейси Аффлек, Бен Фостер, Эрик Бана, Холлидей Грейнджер, Джон Ортис, Кайл Галлнер, Джон Магаро, Грэм МакТавиш, Майкл Рэймонд-Джеймс
    Сборы в США: $27 569 558
    Сборы в мире: + $24 495 000 = $52 064 558
    Сборы в России: $3 209 066
    Мировая премьера: 27 января 2016
    Премьера (РФ): 4 февраля 2016, «WDSSPR»
    Описание: Сюжет фильма основан на реальных событиях, произошедших в 1952 году, когда сотрудники береговой охраны в самый разгар шторма, используя деревянные моторные лодки, пытались спасти экипаж двух нефтяных танкеров.-Качество исходника: WEB-DL 720p (HDClub)
    Качество: WEB-DL
    Тип: HD (720p)
    Контейнер: M4V
    Видео: H.264, 1280x532, 2.40:1, 4 052 Kbps, 23.976 fps
    Аудио 1: Русский/Дублированный (iTunes), AAC / 2.0 / 157 Kbps / 48.0 KHz
    Аудио 2: Английский/Оригинальная дорожка , AAC / 2.0 / 157 Kbps / 48.0 KHz
    Аудио 3: Русский/Дублированный (iTunes), AC-3 / 5.1 / 384 Kbps / 48.0 KHz
    Аудио 4: Английский/Оригинальная дорожка , AC-3 / 5.1 / 384 Kbps / 48.0 KHz
    Субтитры 1: Русские форсированные
    Субтитры 2: Русские полные
    -

    iTunes Meta Tags

    Sort Name: Finest Hours
    XID: Apple:vendor_id:2016-608559
    contentID: 1075745452
    Copyright: © 2016 Disney Enterprises, Inc. All Rights Reserved.
    Screenwriters: Скотт Сильвер, Пол Тэймеси, Эрик Джонсон
    Producers: Дороти Офиеро, Джеймс Уитакер, Дуглас С. Меррифилд
    Director: Крэйг Гиллеспи
    Cast: Крис Пайн, Кейси Аффлек, Бен Фостер, Эрик Бана, Холлидей Грейнджер, Джон Ортис, Кайл Галлнер, Джон Магаро, Грэм МакТавиш, Майкл Рэймонд-Джеймс, Александр Койгеров, Андрей Кузнецов, Сергей Мардарь, Валерий Соловьев, Екатерина Тихомирова
    Studio: Walt Disney Pictures
    Rating: 4
    Long Description: Сюжет фильма основан на реальных событиях, произошедших в 1952 году, когда сотрудники береговой охраны в самый разгар шторма, используя деревянные моторные лодки, пытались спасти экипаж двух нефтяных танкеров.
    Description: Сюжет фильма основан на реальных событиях, произошедших в 1952 году, когда сотрудники береговой охраны в самый разгар шторма, используя деревянные моторные лодки, пытались спасти экипаж двух нефтяных танкеров.
    Release Date: 2016-01-27T08:00:00Z
    Genre: Drama
    Artist: Craig Gillespie
    Name: The Finest Hours (2016)

    MediaInfo

    General
    Complete name : /Users/imac/HandBrake/The.Finest.Hours.WEB-DL.720p.m4v
    Format : MPEG-4
    Codec ID : M4V  (M4V /M4A /mp42/isom)
    File size : 4.21 GiB
    Duration : 1h 57mn
    Overall bit rate mode : Variable
    Overall bit rate : 5 129 Kbps
    Movie name : The Finest Hours (2016)
    Performer : Craig Gillespie
    Director : Крэйг Гиллеспи
    Actor : Крис Пайн / Кейси Аффлек / Бен Фостер / Эрик Бана / Холлидей Грейнджер / Джон Ортис / Кайл Галлнер / Джон Магаро / Грэм МакТавиш / Майкл Рэймонд-Джеймс / Александр Койгеров / Андрей Кузнецов / Сергей Мардарь / Валерий Соловьев / Екатерина Тихомирова
    Screenplay by : Скотт Сильвер / Пол Тэймеси / Эрик Джонсон
    Producer : Дороти Офиеро / Джеймс Уитакер / Дуглас С. Меррифилд
    Production studio : Walt Disney Pictures
    Genre : Drama
    ContentType : Short Film
    Description : Сюжет фильма основан на реальных событиях, произошедших в 1952 году, когда сотрудники береговой охраны в самый разгар шторма, используя деревянные моторные лодки, пытались спасти экипаж двух нефтяных танкеров.
    Recorded date : UTC 2016-01-27 08:00:00
    Encoded date : UTC 2016-05-24 10:54:00
    Tagged date : UTC 2016-05-24 10:56:46
    Copyright : © 2016 Disney Enterprises, Inc. All Rights Reserved.
    Cover : Yes
    Rating : None
    Title/Sort : Finest Hours
    LongDescription : Сюжет фильма основан на реальных событиях, произошедших в 1952 году, когда сотрудники береговой охраны в самый разгар шторма, используя деревянные моторные лодки, пытались спасти экипаж двух нефтяных танкеров.
    HDVideo : Yes
    AppleStoreCatalogID : 1075745452
    Vendor : Apple:vendor_id:2016-608559
    ContentRating : mpaa|PG-13|300|
    Video #1
    ID : 1
    Format : AVC
    Format/Info : Advanced Video Codec
    Format profile : Main@L3.1
    Format settings, CABAC : No
    Format settings, ReFrames : 2 frames
    Format settings, GOP : M=2, N=90
    Codec ID : avc1
    Codec ID/Info : Advanced Video Coding
    Duration : 1h 57mn
    Bit rate : 4 052 Kbps
    Width : 1 280 pixels
    Height : 532 pixels
    Display aspect ratio : 2.40:1
    Frame rate mode : Variable
    Frame rate : 23.976 fps
    Minimum frame rate : 23.810 fps
    Maximum frame rate : 24.390 fps
    Color space : YUV
    Chroma subsampling : 4:2:0
    Bit depth : 8 bits
    Scan type : Progressive
    Bits/(Pixel*Frame) : 0.248
    Stream size : 3.32 GiB (79%)
    Title : Main Program
    Language : English
    Encoded date : UTC 2016-05-24 10:54:00
    Tagged date : UTC 2016-05-24 10:55:33
    Color range : Limited
    Color primaries : BT.709
    Transfer characteristics : BT.709
    Matrix coefficients : BT.709
    Menus : 8,9
    Video #2
    ID : 9
    Format : JPEG
    Codec ID : jpeg
    Duration : 1h 57mn
    Bit rate mode : Variable
    Bit rate : 620 bps
    Width : 640 pixels
    Height : 266 pixels
    Display aspect ratio : 2.40:1
    Frame rate mode : Variable
    Frame rate : 0.003 fps
    Minimum frame rate : 0.001 fps
    Maximum frame rate : 0.011 fps
    Color space : YUV
    Chroma subsampling : 4:2:0
    Bit depth : 8 bits
    Compression mode : Lossy
    Bits/(Pixel*Frame) : 1.214
    Stream size : 555 KiB (0%)
    Title : Chapter Images
    Language : English
    Default : No
    Encoded date : UTC 2016-05-24 10:55:37
    Tagged date : UTC 2016-05-24 10:55:38
    Menu For : 1
    Audio #1
    ID : 2
    Format : AAC
    Format/Info : Advanced Audio Codec
    Format profile : LC
    Codec ID : 40
    Duration : 1h 57mn
    Bit rate mode : Variable
    Bit rate : 157 Kbps
    Maximum bit rate : 218 Kbps
    Channel(s) : 2 channels
    Channel positions : Front: L R
    Sampling rate : 48.0 KHz
    Frame rate : 46.875 fps (1024 spf)
    Compression mode : Lossy
    Stream size : 132 MiB (3%)
    Title : Russian Stereo
    Language : Russian
    Default : Yes
    Alternate group : 1
    Encoded date : UTC 2016-05-24 10:54:00
    Tagged date : UTC 2016-05-24 10:54:07
    Fallback From : 4
    Audio #2
    ID : 3
    Format : AAC
    Format/Info : Advanced Audio Codec
    Format profile : LC
    Codec ID : 40
    Duration : 1h 57mn
    Bit rate mode : Variable
    Bit rate : 157 Kbps
    Maximum bit rate : 228 Kbps
    Channel(s) : 2 channels
    Channel positions : Front: L R
    Sampling rate : 48.0 KHz
    Frame rate : 46.875 fps (1024 spf)
    Compression mode : Lossy
    Stream size : 131 MiB (3%)
    Title : English Stereo
    Language : English
    Default : No
    Alternate group : 1
    Encoded date : UTC 2016-05-24 10:54:00
    Tagged date : UTC 2016-05-24 10:54:07
    Fallback From : 5
    Audio #3
    ID : 4
    Format : AC-3
    Format/Info : Audio Coding 3
    Mode extension : CM (complete main)
    Format settings, Endianness : Big
    Codec ID : ac-3
    Duration : 1h 57mn
    Bit rate mode : Constant
    Bit rate : 384 Kbps
    Channel(s) : 6 channels
    Channel positions : Front: L C R, Side: L R, LFE
    Sampling rate : 48.0 KHz
    Frame rate : 31.250 fps (1536 spf)
    Bit depth : 16 bits
    Compression mode : Lossy
    Stream size : 322 MiB (7%)
    Title : Russian DD 5.1
    Language : Russian
    Default : Inherited From: 2
    Alternate group : 1
    Encoded date : UTC 2016-05-24 10:54:00
    Tagged date : UTC 2016-05-24 10:55:33
    Fallback To : 2
    Audio #4
    ID : 5
    Format : AC-3
    Format/Info : Audio Coding 3
    Mode extension : CM (complete main)
    Format settings, Endianness : Big
    Codec ID : ac-3
    Duration : 1h 57mn
    Bit rate mode : Constant
    Bit rate : 384 Kbps
    Channel(s) : 6 channels
    Channel positions : Front: L C R, Side: L R, LFE
    Sampling rate : 48.0 KHz
    Frame rate : 31.250 fps (1536 spf)
    Bit depth : 16 bits
    Compression mode : Lossy
    Stream size : 322 MiB (7%)
    Title : English DD 5.1
    Language : English
    Default : No
    Alternate group : 1
    Encoded date : UTC 2016-05-24 10:54:00
    Tagged date : UTC 2016-05-24 10:55:33
    Fallback To : 3
    Text #1
    ID : 6
    Format : Timed Text
    Muxing mode : sbtl
    Codec ID : tx3g
    Duration : 1h 57mn
    Bit rate mode : Variable
    Bit rate : 1 bps
    Stream size : 1.17 KiB (0%)
    Title : Russian Forced, iTunes
    Language : Russian
    Default : Yes
    Forced : No
    Alternate group : 2
    Encoded date : UTC 2016-05-24 10:54:00
    Tagged date : UTC 2016-05-24 10:55:33
    Text #2
    ID : 7
    Format : Timed Text
    Muxing mode : sbtl
    Codec ID : tx3g
    Duration : 1h 57mn
    Bit rate mode : Variable
    Bit rate : 75 bps
    Stream size : 64.2 KiB (0%)
    Title : Russian iTunes
    Language : Russian
    Default : No
    Forced : No
    Alternate group : 2
    Encoded date : UTC 2016-05-24 10:54:00
    Tagged date : UTC 2016-05-24 10:55:33
    Menu #1
    00:00:00.000 : Meeting Miriam
    00:09:14.000 : The Dance Hall
    00:14:22.000 : The Pendleton Under Pressure
    00:19:52.000 : Distress Call
    00:22:57.000 : What Should We Do?
    00:28:34.000 : Ship Spotted
    00:34:05.000 : Sybert\'s Plan
    00:36:59.000 : Volunteers Needed
    00:42:51.000 : Aiming For The Shoal
    00:45:01.000 : The Guard Heads Out
    00:46:59.000 : Miriam Visits The Station
    00:48:44.000 : Wave!
    00:50:12.000 : Miriam Confronts Cluff
    00:55:53.000 : Crossing The Bar
    01:04:13.000 : Beaching The Pendleton
    01:08:58.000 : Riding The Waves
    01:11:38.000 : Time Is Running Out
    01:16:16.000 : The Waiting Game
    01:20:30.000 : The Rescue
    01:33:30.000 : The Long Trip Home
    01:42:27.000 : Safe Harbor
    01:49:40.000 : End Credits
    Menu #2
    ID : 8
    Codec ID : text
    Duration : 1h 57mn
    Language : English
    Encoded date : UTC 2016-05-24 10:55:33
    Tagged date : UTC 2016-05-24 10:55:33
    Menu For : 1
    00:00:00.000 : Meeting Miriam
    00:09:14.000 : The Dance Hall
    00:14:22.000 : The Pendleton Under Pressure
    00:19:52.000 : Distress Call
    00:22:57.000 : What Should We Do?
    00:28:34.000 : Ship Spotted
    00:34:05.000 : Sybert\'s Plan
    00:36:59.000 : Volunteers Needed
    00:42:51.000 : Aiming For The Shoal
    00:45:01.000 : The Guard Heads Out
    00:46:59.000 : Miriam Visits The Station
    00:48:44.000 : Wave!
    00:50:12.000 : Miriam Confronts Cluff
    00:55:53.000 : Crossing The Bar
    01:04:13.000 : Beaching The Pendleton
    01:08:58.000 : Riding The Waves
    01:11:38.000 : Time Is Running Out
    01:16:16.000 : The Waiting Game
    01:20:30.000 : The Rescue
    01:33:30.000 : The Long Trip Home
    01:42:27.000 : Safe Harbor
    01:49:40.000 : End Credits
    Bit rate mode : VBR

    Скриншоты

    -

    Релиз подготовлен для просмотра на Apple TV, iPad, iPhone, iPod Touch.
    Для просмотра данного релиза на компьютере с ОС Windows рекомендуется использовать VLC media player
    Скачать .torrent

    Скачать торрент-файл бесплатно и на максимальной скорости!

    Как скачивать? · Что такое торрент? · Рейтинг и ограничения

    !ВНИМАНИЕ!
    Сайт не распространяет и не хранит электронные версии произведений, а занимается лишь лишь предоставлением доступа к создаваемому пользователями каталогу ссылок на торрент-файлы, которые содержат только списки хеш-сумм, убедительная просьба с жалобами обращаться напрямую к пользователю. Файлы для обмена на трекере предоставлены пользователями сайта, и администрация не несёт ответственности за их содержание. Просьба не заливать файлы, защищенные авторскими правами, а также файлы нелегального содержания!


    _________________
    [Профиль] [ЛС]
    Показать сообщения:    
    Ответить на тему

    Текущее время: Сегодня, в 08:50

    Часовой пояс: GMT + 2



    Вы не можете начинать темы
    Вы не можете отвечать на сообщения
    Вы не можете редактировать свои сообщения
    Вы не можете удалять свои сообщения
    Вы не можете голосовать в опросах
    Вы не можете прикреплять файлы к сообщениям
    Вы не можете скачивать файлы