BitTorrentTracker PerecTracker.org
BitTorrentTracker PerecTracker.org
    
Регистрация  ·  Вход
 
 · 
Забыли пароль?

  • 13 часов: Тайные солдаты Бенгази / 13 Hours: The Secret Soldiers of Benghazi (2016) WEB-DLRip | D | звук с CAMRip

    Ответить на тему
     
    Автор Сообщение

    BOSS

    Создавать темы 24-Май-2016 20:29

           

    [Цитировать]

    13 часов: Тайные солдаты Бенгази / 13 Hours: The Secret Soldiers of Benghazi
    Страна: США Производство: 3 Arts Entertainment, Dune Films, Latina Pictures, Paramount Pictures
    Год выпуска: 2016
    Жанр: боевик, триллер, драма, военный
    Продолжительность: 02:24:49
    Режиссер: Майкл Бэй
    Авторы сценария: Чак Хоган, Митчелл Зукофф
    В ролях: Джон Красински, Джеймс Бэдж Дэйл, Пабло Шрайбер, Дэвид Денман, Доминик Фумуса, Макс Мартини, Алексия Бальер, Дэвид Костабайл
    Описание: 2012 год. Бенгази, Ливия. Группа террористов решает «отпраздновать» события 11 сентября нападением на американское посольство. Шестерке бойцов из элитного спецотряда приказано вмешаться только в крайнем случае. Но когда под угрозой десятки жизней, долг и совесть берут верх над субординацией. И мужественные солдаты без колебаний вступают в бой с яростной группировкой боевиков. Бой, который для всех шестерых, скорее всего, станет последним...

    Перевод: Профессиональный (полное дублирование) | звук с CAMRip
    Субтитры: нет-Качество: WEB-DLRip
    Формат: АVI
    Видео кодек: XviD
    Аудио кодек: АС3
    Видео: 720x304 (2.35:1), 23.976 fps, XviD ~2 040 kbps avg, 0.389 bit/pixel
    Аудио: 48.0 kHz, AC3 Dolby Digital, 2/0 (L,R) ch, ~128 kbps
    Бюджет: $50 000 000
    Дата премьеры (мир): 12 января 2016
    Дата премьеры (РФ): 28 января 2016, «Централ Партнершип»
    релиз на DVD, Blu-Ray: 12 июля 2016, «Новый Диск»
    ПРИМЕЧАНИЕ: ПРИСУТСТВУЕТ РЕКЛАМА!

    Media Info

    General
    Format : AVI
    Format/Info : Audio Video Interleave
    Overall bit rate : 2 178 Kbps
    Movie name : 13.ChaSov.2016.Dt.WEB-DLRip.2100MB
    Writing application : VirtualDubMod 1.5.10.3 | (build 2550/release)
    Writing library : VirtualDubMod build 2550/release
    Copyright : MoreFilms
    Video
    ID : 0
    Format : MPEG-4 Visual
    Format profile : Advanced Simple@L5
    Format settings, BVOP : 2
    Format settings, QPel : No
    Format settings, GMC : No warppoints
    Format settings, Matrix : Default (MPEG)
    Codec ID : XVID
    Codec ID/Hint : XviD
    Bit rate : 2 040 Kbps
    Width : 720 pixels
    Height : 304 pixels
    Display aspect ratio : 2.35:1
    Frame rate : 23.976 fps
    Color space : YUV
    Chroma subsampling : 4:2:0
    Bit depth : 8 bits
    Scan type : Progressive
    Compression mode : Lossy
    Bits/(Pixel*Frame) : 0.389
    Stream size : 26.5 MiB (94%)
    Writing library : XviD 1.2.1 (UTC 2008-12-04)
    Audio
    ID : 1
    Format : AC-3
    Format/Info : Audio Coding 3
    Mode extension : CM (complete main)
    Format settings, Endianness : Big
    Codec ID : 2000
    Bit rate mode : Constant
    Bit rate : 128 Kbps
    Channel(s) : 2 channels
    Channel positions : Front: L R
    Sampling rate : 48.0 KHz
    Compression mode : Lossy
    Stream size : 1.66 MiB (6%)
    Alignment : Split accross interleaves
    Interleave, preload duration : 500 ms

    Скриншоты

    Скачать .torrent

    Скачать торрент-файл бесплатно и на максимальной скорости!

    Как скачивать? · Что такое торрент? · Рейтинг и ограничения

    !ВНИМАНИЕ!
    Сайт не распространяет и не хранит электронные версии произведений, а занимается лишь лишь предоставлением доступа к создаваемому пользователями каталогу ссылок на торрент-файлы, которые содержат только списки хеш-сумм, убедительная просьба с жалобами обращаться напрямую к пользователю. Файлы для обмена на трекере предоставлены пользователями сайта, и администрация не несёт ответственности за их содержание. Просьба не заливать файлы, защищенные авторскими правами, а также файлы нелегального содержания!

    [Профиль] [ЛС]
    Показать сообщения:    
    Ответить на тему

    Текущее время: Сегодня, в 16:00

    Часовой пояс: GMT + 2



    Вы не можете начинать темы
    Вы не можете отвечать на сообщения
    Вы не можете редактировать свои сообщения
    Вы не можете удалять свои сообщения
    Вы не можете голосовать в опросах
    Вы не можете прикреплять файлы к сообщениям
    Вы не можете скачивать файлы