BitTorrentTracker PerecTracker.org
BitTorrentTracker PerecTracker.org
    
Регистрация  ·  Вход
 
 · 
Забыли пароль?

  • Три девятки / Triple 9 (Джон Хиллкоут / John Hillcoat) [2016, США, криминал, драма, триллер, BDRip] Dub + Sub Eng + Original Eng

    Ответить на тему
     
    Автор Сообщение

    rechyn

    Создавать темы 24-Май-2016 17:06

           

    [Цитировать]

    Три девятки / Triple 9
    Страна: США
    Жанр: криминал, драма, триллер
    Год выпуска: 2016
    Продолжительность: 01:55:45
    Перевод: Профессиональный (дублированный)
    Cубтитры: английские
    Оригинальная аудиодорожка: английский
    Режиссер: Джон Хиллкоут / John Hillcoat
    В ролях: Аарон Пол, Кейт Уинслет, Вуди Харрельсон, Кейси Аффлек, Энтони Маки, Чиветел Эджиофор, Галь Гадот, Норман Ридус, Тереза Палмер, Майкл Кеннет Уильямс, Клифтон Коллинз мл., Мишель Энг, Терренс Розмор, Терри Эбни, Александр Бабара, Энтони Белевцов, Луис Да Силва мл., Йен Касселберри, Э. Роджер Митчелл, Блейк МакЛеннан
    Описание: Банда преступников и коррумпированных копов планирует убить полицейского, чтобы провернуть ограбление на другом конце города.
    Сэмпл: http://multi-up.com/1102695
    Качество видео: BDRip (Три девятки / Triple 9 (2016) 1080p BD-Remux)
    Формат видео: AVI
    Видео: 720x304 (2.37:1), 23.976 fps, XviD build 73 ~1927 kbps avg, 0.37 bit/pixel
    Аудио: 48 kHz, AC3 Dolby Digital, 3/2 (L,C,R,l,r) + LFE ch, ~384 kbps rus
    Аудио 2: 48 kHz, AC3 Dolby Digital, 3/2 (L,C,R,l,r) + LFE ch, ~384 kbps eng

    MediaInfo

    Формат : AVI
    Формат/Информация : Audio Video Interleave
    Размер файла : 1,37 Гбайт
    Продолжительность : 1 ч. 45 м.
    Общий поток : 1856 Кбит/сек
    Название фильма : The.Jungle.B00k.2O16.D.TC.1400MB.Proper
    Программа кодирования : VirtualDubMod 1.5.10.2 (build 2540/release)
    Формат оригинала/Имя : Movie
    Видео
    Идентификатор : 0
    Формат : MPEG-4 Visual
    Профиль формата : Advanced Simple@L5
    Параметр BVOP формата : 2
    Параметр QPel формата : Нет
    Параметр GMC формата : Без точки перехода
    Параметр матрицы формата : Выборочная
    Идентификатор кодека : XVID
    Идентификатор кодека/Подсказка : XviD
    Продолжительность : 1 ч. 45 м.
    Битрейт : 1656 Кбит/сек
    Ширина : 720 пикселей
    Высота : 384 пикселя
    Соотношение сторон : 1,85:1
    Частота кадров : 23,976 (24000/1001) кадра/сек
    Цветовое пространство : YUV
    Субдискретизация насыщенности : 4:2:0
    Битовая глубина : 8 бит
    Тип развёртки : Прогрессивная
    Метод сжатия : С потерями
    Бит/(Пиксели*Кадры) : 0.250
    Размер потока : 1,23 Гбайт (89%)
    Библиотека кодирования : XviD 1.2.1 (UTC 2008-12-04)
    Аудио
    Идентификатор : 1
    Формат : AC-3
    Формат/Информация : Audio Coding 3
    Расширение режима : CM (complete main)
    Параметр Endianness формата : Big
    Идентификатор кодека : 2000
    Продолжительность : 1 ч. 45 м.
    Вид битрейта : Постоянный
    Битрейт : 192 Кбит/сек
    Каналы : 2 канала
    Расположение каналов : Front: L R
    Частота : 48,0 КГц
    Частота кадров : 31,250 кадров/сек (1536 spf)
    Метод сжатия : С потерями
    Размер потока : 145 Мбайт (10%)
    Выравнивание : Разделение по промежуткам
    Продолжительность промежутка : 42 мс. (1,00 видеокадр)
    Время предзагрузки промежутка : 500 мс.

    Скриншоты

    Сравнениеhttp://screenshotcomparison.com/comparison/173744/picture:2 http://perectracker.org/http://perectracker.org/viewtopic.php?t=5227774
    Скачать .torrent

    Скачать торрент-файл бесплатно и на максимальной скорости!

    Как скачивать? · Что такое торрент? · Рейтинг и ограничения

    !ВНИМАНИЕ!
    Сайт не распространяет и не хранит электронные версии произведений, а занимается лишь лишь предоставлением доступа к создаваемому пользователями каталогу ссылок на торрент-файлы, которые содержат только списки хеш-сумм, убедительная просьба с жалобами обращаться напрямую к пользователю. Файлы для обмена на трекере предоставлены пользователями сайта, и администрация не несёт ответственности за их содержание. Просьба не заливать файлы, защищенные авторскими правами, а также файлы нелегального содержания!


    _________________
    [Профиль] [ЛС]
    Показать сообщения:    
    Ответить на тему

    Текущее время: Сегодня, в 01:49

    Часовой пояс: GMT + 2



    Вы не можете начинать темы
    Вы не можете отвечать на сообщения
    Вы не можете редактировать свои сообщения
    Вы не можете удалять свои сообщения
    Вы не можете голосовать в опросах
    Вы не можете прикреплять файлы к сообщениям
    Вы не можете скачивать файлы