BitTorrentTracker PerecTracker.org
BitTorrentTracker PerecTracker.org
    
Регистрация  ·  Вход
 
 · 
Забыли пароль?

  • И грянул шторм / The Finest Hours (Крэйг Гиллеспи / Craig Gillespie) [2016, США, Боевик, триллер, драма, история, BDRip-AVC] Dub + Original + Sub (rus, eng)

    Ответить на тему
     
    Автор Сообщение

    rechyn

    Создавать темы 24-Май-2016 17:06

           

    [Цитировать]

    И грянул шторм / The Finest Hours«32 survivors, room for 12»-Страна: США
    Жанр: Боевик, триллер, драма, история
    Год выпуска: 2016
    Продолжительность: 01:57:19
    Перевод: Профессиональный (полное дублирование) (iTunes)
    Оригинальная аудиодорожка: английский
    Cубтитры: русские (форс., полные), английские (полные, SDH)
    Навигация по главам: есть
    Режиссер: Крэйг Гиллеспи / Craig Gillespie
    В ролях: Крис Пайн, Кейси Аффлек, Бен Фостер, Эрик Бана, Холлидей Грейнджер, Джон Ортис, Кайл Галлнер, Джон Магаро, Грэм МакТавиш, Майкл Рэймонд-Джеймс, Бо Напп, Джош Стюарт, Абрахам Бенруби, Кейнан Лонсдейл, Рэйчел Броснахэн, Бенжамин Колдык, Мэттью Мехер, Джесси Габбар, Александр Кук, Дэнни Коннелли
    Описание: Сюжет фильма основан на реальных событиях, произошедших в 1952 году, когда сотрудники береговой охраны в самый разгар шторма, используя деревянные моторные лодки, пытались спасти экипаж двух нефтяных танкеров.

    Качество видео: BDRip-AVC (исходник - BDRemux|The.Finest.Hours.2016.BluRay.1080p.DTS-HD.MA.7.1.AVC.REMUX-FraMeSToR)
    Формат видео: MKV
    Видео: x264, 1152х480 (2.40:1), 23,976 fps, ~1843 kbps, 0.139 bit/pixel
    Аудио 1: 48 kHz, AC3 Dolby Digital, 3/2 (L,C,R,l,r) + LFE ch, ~384 kbps [русский]
    Аудио 2: 48 kHz, AC3 Dolby Digital, 3/2 (L,C,R,l,r) + LFE ch, ~384 kbps [английский]
    Формат субтитров: softsub (SRT)
    MediaInfo | x264 log
    Format : Matroska
    Format version : Version 4 / Version 2
    File size : 2.18 GiB
    Duration : 1h 57mn
    Overall bit rate : 2 664 Kbps
    Movie name : И грянул шторм / The Finest Hours (2016) :: AFM ::
    Encoded date : UTC 2016-05-23 22:43:57
    Writing application : mkvmerge v8.3.0 ('Over the Horizon') 32bit
    Writing library : libebml v1.3.1 + libmatroska v1.4.2
    Video
    ID : 1
    Format : AVC
    Format/Info : Advanced Video Codec
    Format profile : High@L4.1
    Format settings, CABAC : Yes
    Format settings, ReFrames : 13 frames
    Codec ID : V_MPEG4/ISO/AVC
    Duration : 1h 57mn
    Bit rate : 1 843 Kbps
    Width : 1 152 pixels
    Height : 480 pixels
    Display aspect ratio : 2.40:1
    Frame rate mode : Constant
    Frame rate : 23.976 fps
    Color space : YUV
    Chroma subsampling : 4:2:0
    Bit depth : 8 bits
    Scan type : Progressive
    Bits/(Pixel*Frame) : 0.139
    Stream size : 1.51 GiB (69%)
    Title : BDRip by AFM [RuTracker.org]
    Writing library : x264 core 148 r2665+53 6629127 t_mod_Custom [8-bit@all X86_64]
    Encoding settings : cabac=1 / ref=13 / deblock=1:-3:-2 / analyse=0x3:0x113 / me=umh / subme=10 / psy=1 / fade_compensate=0.00 / psy_rd=1.00:0.00 / mixed_ref=1 / me_range=32 / chroma_me=1 / trellis=2 / 8x8dct=1 / cqm=0 / deadzone=21,11 / fast_pskip=0 / chroma_qp_offset=-2 / threads=6 / lookahead_threads=1 / sliced_threads=0 / nr=0 / decimate=1 / interlaced=0 / bluray_compat=0 / constrained_intra=0 / fgo=0 / bframes=15 / b_pyramid=2 / b_adapt=2 / b_bias=0 / direct=1 / weightb=1 / open_gop=0 / weightp=2 / keyint=250 / keyint_min=23 / scenecut=40 / intra_refresh=0 / rc_lookahead=40 / rc=crf / mbtree=0 / crf=18.5000 / qcomp=0.65 / qpmin=0:0:0 / qpmax=69:69:69 / qpstep=4 / vbv_maxrate=50000 / vbv_bufsize=62500 / crf_max=0.0 / nal_hrd=none / filler=0 / ip_ratio=1.30 / pb_ratio=1.20 / aq=1:0.80 / aq-sensitivity=10.00 / aq-factor=1.00:1.00:1.00 / aq2=0 / aq3=0
    Language : English
    Default : Yes
    Forced : No
    Audio #1
    ID : 2
    Format : AC-3
    Format/Info : Audio Coding 3
    Mode extension : CM (complete main)
    Format settings, Endianness : Big
    Codec ID : A_AC3
    Duration : 1h 57mn
    Bit rate mode : Constant
    Bit rate : 384 Kbps
    Channel(s) : 6 channels
    Channel positions : Front: L C R, Side: L R, LFE
    Sampling rate : 48.0 KHz
    Compression mode : Lossy
    Stream size : 322 MiB (14%)
    Title : Dub, AC3 5.1 ~384 kbps
    Language : Russian
    Default : Yes
    Forced : No
    Audio #2
    ID : 3
    Format : AC-3
    Format/Info : Audio Coding 3
    Mode extension : CM (complete main)
    Format settings, Endianness : Big
    Codec ID : A_AC3
    Duration : 1h 57mn
    Bit rate mode : Constant
    Bit rate : 384 Kbps
    Channel(s) : 6 channels
    Channel positions : Front: L C R, Side: L R, LFE
    Sampling rate : 48.0 KHz
    Compression mode : Lossy
    Stream size : 322 MiB (14%)
    Title : Original, AC3 5.1 ~384 kbps
    Language : English
    Default : No
    Forced : No
    Text #1
    ID : 4
    Format : UTF-8
    Codec ID : S_TEXT/UTF8
    Codec ID/Info : UTF-8 Plain Text
    Title : forced
    Language : Russian
    Default : Yes
    Forced : No
    Text #2
    ID : 5
    Format : UTF-8
    Codec ID : S_TEXT/UTF8
    Codec ID/Info : UTF-8 Plain Text
    Language : Russian
    Default : No
    Forced : No
    Text #3
    ID : 6
    Format : UTF-8
    Codec ID : S_TEXT/UTF8
    Codec ID/Info : UTF-8 Plain Text
    Language : English
    Default : No
    Forced : No
    Text #4
    ID : 7
    Format : UTF-8
    Codec ID : S_TEXT/UTF8
    Codec ID/Info : UTF-8 Plain Text
    Title : SDH
    Language : English
    Default : No
    Forced : No
    Menu
    00:00:00.000 : en:Meeting Miriam
    00:09:13.886 : en:The Dance Hall
    00:14:22.194 : en:The Pendleton Under Pressure
    00:19:52.107 : en:Distress Call
    00:22:56.792 : en:What Should We Do?
    00:28:34.379 : en:Ship Spotted
    00:34:05.209 : en:Sybert's Plan
    00:36:59.383 : en:Volunteers Needed
    00:42:50.901 : en:Aiming For The Shoal
    00:45:01.156 : en:The Guard Heads Out
    00:46:59.441 : en:Miriam Visits The Station
    00:48:44.463 : en:Wave!
    00:50:12.551 : en:Miriam Confronts Cluff
    00:55:53.141 : en:Crossing The Bar
    01:04:47.967 : en:Beaching The Pendleton
    01:08:58.634 : en:Riding The Waves
    01:11:38.836 : en:Time Is Running Out
    01:16:16.488 : en:The Waiting Game
    01:20:30.325 : en:The Rescue
    01:33:30.479 : en:The Long Trip Home
    01:42:27.641 : en:Safe Harbor
    01:49:40.323 : en:End Credits

    x264

    x264 [info]: frame I:1229 Avg QP:15.30 size: 48040
    x264 [info]: frame P:29618 Avg QP:16.63 size: 18868
    x264 [info]: frame B:137909 Avg QP:18.86 size: 7602
    x264 [info]: consecutive B-frames: 1.2% 0.8% 2.7% 8.6% 13.6% 52.2% 6.1% 1.2% 1.9% 0.9% 2.5% 3.1% 2.6% 1.7% 0.7% 0.1%
    x264 [info]: mb I I16..4: 5.4% 81.1% 13.5%
    x264 [info]: mb P I16..4: 0.7% 8.2% 0.9% P16..4: 40.2% 32.1% 14.2% 0.0% 0.0% skip: 3.7%
    x264 [info]: mb B I16..4: 0.0% 0.5% 0.1% B16..8: 45.9% 14.0% 2.6% direct: 5.0% skip:32.0% L0:46.9% L1:48.1% BI: 5.0%
    x264 [info]: 8x8 transform intra:83.7% inter:71.6%
    x264 [info]: coded y,uvDC,uvAC intra: 90.9% 73.7% 45.3% inter: 23.4% 12.6% 0.7%
    x264 [info]: i16 v,h,dc,p: 12% 11% 9% 68%
    x264 [info]: i8 v,h,dc,ddl,ddr,vr,hd,vl,hu: 7% 7% 3% 11% 17% 15% 15% 12% 13%
    x264 [info]: i4 v,h,dc,ddl,ddr,vr,hd,vl,hu: 6% 5% 2% 13% 18% 16% 15% 12% 14%
    x264 [info]: i8c dc,h,v,p: 36% 30% 20% 14%
    x264 [info]: Weighted P-Frames: Y:97.1% UV:2.7%
    x264 [info]: ref P L0: 44.2% 6.5% 17.8% 7.7% 6.0% 4.4% 3.7% 2.1% 1.9% 1.6% 1.4% 1.3% 1.2% 0.1% 0.0%
    x264 [info]: ref B L0: 64.3% 14.3% 7.6% 3.9% 2.8% 2.2% 1.7% 1.0% 0.9% 0.8% 0.4% 0.2%
    x264 [info]: ref B L1: 89.3% 10.7%
    x264 [info]: kb/s:1893.83

    Скриншоты

    с названием

    Скачать .torrent

    Скачать торрент-файл бесплатно и на максимальной скорости!

    Как скачивать? · Что такое торрент? · Рейтинг и ограничения

    !ВНИМАНИЕ!
    Сайт не распространяет и не хранит электронные версии произведений, а занимается лишь лишь предоставлением доступа к создаваемому пользователями каталогу ссылок на торрент-файлы, которые содержат только списки хеш-сумм, убедительная просьба с жалобами обращаться напрямую к пользователю. Файлы для обмена на трекере предоставлены пользователями сайта, и администрация не несёт ответственности за их содержание. Просьба не заливать файлы, защищенные авторскими правами, а также файлы нелегального содержания!


    _________________
    [Профиль] [ЛС]
    Показать сообщения:    
    Ответить на тему

    Текущее время: Сегодня, в 19:35

    Часовой пояс: GMT + 2



    Вы не можете начинать темы
    Вы не можете отвечать на сообщения
    Вы не можете редактировать свои сообщения
    Вы не можете удалять свои сообщения
    Вы не можете голосовать в опросах
    Вы не можете прикреплять файлы к сообщениям
    Вы не можете скачивать файлы