BitTorrentTracker PerecTracker.org
BitTorrentTracker PerecTracker.org
    
Регистрация  ·  Вход
 
 · 
Забыли пароль?

  • Из тьмы / The Hallow (2015) HDRip | D | iTunes

    Ответить на тему
     
    Автор Сообщение

    BOSS

    Создавать темы 24-Май-2016 06:40

           

    [Цитировать]

    Из тьмы / Первобытный страх / The Woods / The Hallow
    Страна: США Великобритания Ирландия
    Производство: Altitude Film Entertainment, Fantastic Films Ltd., Hyperion Media Group, Occupant Films, Prescience
    Год выпуска: 2015
    Жанр: ужасы
    Продолжительность: 01:37:08
    Режиссер: Корин Харди
    Авторы сценария: Корин Харди, Фелипе Марино
    В ролях: Джозеф Моул, Бояна Новакович, Майкл МакЭлхаттон, Майкл Смайли, Гари Лайдон, Стюарт Грэхэм, Конор Крэйг Стефенс, Шон Тайрел
    Описание: Семейная пара переезжает в новый дом на краю леса, окутанного жуткими легендами. Его первобытные существа пытаются забрать у родителей младенца...

    Перевод: Профессиональный (полное дублирование) | iTunes
    Субтитры: нет-Качество: HDRip
    Формат: АVI
    Видео кодек: XviD
    Аудио кодек: АС3
    Видео: 720x304 (2.35:1), 23.976 fps, XviD ~1 541 kbps avg, 0.294 bit/pixel
    Аудио: 48 kHz, AC3 Dolby Digital, 3/2 (L,C,R,l,r) + LFE ch, ~384 kbps
    Дата премьеры (мир): 25 января 2015
    Дата премьеры (РФ): 18 февраля 2016, «Экспонента»

    Media Info

    General
    Название : IZ.TmY.2O16.D.HDRip.14OOMB.avi
    Формат : AVI
    Формат/Info : Audio Video Interleave
    Размер файла : 1.37 GiB
    Длительность : 1h 37mn
    Общий Битрейт : 2 013 Kbps
    Создано приложением : VirtualDubMod 1.5.10.2 (build 2540/release)
    Writing library : VirtualDubMod build 2540/release
    Video
    ID : 0
    Формат : MPEG-4 Visual
    Формат profile : Advanced Simple@L5
    Формат настройки, BVOP : 2
    Формат настройки, QPel : No
    Формат настройки, GMC : No warppoints
    Формат настройки, Matrix : Custom
    Кодек ID : XVID
    Кодек ID/Hint : XviD
    Длительность : 1h 37mn
    Битрейт : 1 541 Kbps
    Width : 720 пикселей
    Высота : 304 пикселей
    Соотношение кадра : 2.35:1
    Частота кадров : 23.976 fps
    Цветопередача : YUV
    Chroma subsampling : 4:2:0
    Разрядность : 8 bits
    Тип сканирования : Progressive
    Режим сжатия : Lossy
    Bits/(Pixel*Frame) : 0.294
    Размер потока : 1.05 GiB (77%)
    Writing library : XviD 1.2.1 (UTC 2008-12-04)
    Audio
    ID : 1
    Формат : AC-3
    Формат/Info : Audio Coding 3
    Расширение режима : CM (complete main)
    Кодек ID : 2000
    Длительность : 1h 36mn
    Битрейт mode : Constant
    Битрейт : 384 Kbps
    Channel(s) : 6 каналов
    Channel positions : Front: L C R, Side: L R, LFE
    Частота : 48.0 KHz
    Разрядность : 16 bits
    Режим сжатия : Lossy
    Размер потока : 266 MiB (19%)
    Выравнивание : Split accross interleaves

    Скриншоты

    Скачать .torrent

    Скачать торрент-файл бесплатно и на максимальной скорости!

    Как скачивать? · Что такое торрент? · Рейтинг и ограничения

    !ВНИМАНИЕ!
    Сайт не распространяет и не хранит электронные версии произведений, а занимается лишь лишь предоставлением доступа к создаваемому пользователями каталогу ссылок на торрент-файлы, которые содержат только списки хеш-сумм, убедительная просьба с жалобами обращаться напрямую к пользователю. Файлы для обмена на трекере предоставлены пользователями сайта, и администрация не несёт ответственности за их содержание. Просьба не заливать файлы, защищенные авторскими правами, а также файлы нелегального содержания!

    [Профиль] [ЛС]
    Показать сообщения:    
    Ответить на тему

    Текущее время: Сегодня, в 18:57

    Часовой пояс: GMT + 2



    Вы не можете начинать темы
    Вы не можете отвечать на сообщения
    Вы не можете редактировать свои сообщения
    Вы не можете удалять свои сообщения
    Вы не можете голосовать в опросах
    Вы не можете прикреплять файлы к сообщениям
    Вы не можете скачивать файлы