BitTorrentTracker PerecTracker.org
BitTorrentTracker PerecTracker.org
    
Регистрация  ·  Вход
 
 · 
Забыли пароль?

  • Бакенбарды (Юрий Мамин) [1990, сатира, комедия, DVDRip-AVC]

    Ответить на тему
     
    Автор Сообщение

    Flirldrerve

    Создавать темы 24-Май-2016 00:43

           

    [Цитировать]

    Бакенбарды
    Жанр: сатира, комедия
    Год выпуска: 1990
    Продолжительность: 01:36:44
    -
    Режиссёр: Юрий Мамин
    В ролях: Виктор Сухоруков, Александр Медведев, Артур Ваха, Владлен Бирюков, Александр Лыков, Ольга Алабышева, Ольга Самарина, Анатолий Журавлев, Юрий Мамин, Виктор Михайлов, Елена Руфанова
    -
    Описание: Перестройка в разгаре. В уездном городе Заборске нет житья от распоясавшейся молодежной группировки "Капелла". Другие неформалы - "Бивни" - "качают" мускулы и бьют "Капеллу". Милиция ничего не может с ними поделать. И тут в Заборск приезжают из Ленинграда два человека с бакенбардами, в макинтошах и котелках. Они цитируют Пушкина, прекрасно умеют постоять за себя при помощи трости и твердо знают, что нужно делать, чтобы спасти Россию...
    -
    Доп. информация:
    -
    Сэмпл: http://sendfile.su/1236447
    -
    Качество видео: DVDRip-AVC (DVD5/Раиса Захаровна)
    Формат видео: MKV
    Видео: 720x558 (1.376:1) @ 768x558, 25 fps, AVC, ~1 965 Kbps, 0.196 bits/pixel
    Аудио: 48 kHz, AC3 Dolby Digital, 2/0 (L,R) ch, ~192 kbps

    MediaInfo

    x264 [info]: frame I:850 Avg QP:16.09 size: 45860
    x264 [info]: frame P:33326 Avg QP:18.69 size: 18674
    x264 [info]: frame B:110935 Avg QP:20.69 size: 6892-General
    Unique ID : 181157233723996143967619083081045524464 (0x88499D3620232219BDF9ED1CBE483FF0)
    Complete name : C:\Users\ALEX\Downloads\Фильмы\Бакенбарды.1990.DVDRip-AVC.x264.AC3.mkv
    Format : Matroska
    Format version : Version 4 / Version 2
    File size : 1.46 GiB
    Duration : 1h 36mn
    Overall bit rate : 2 159 Kbps
    Encoded date : UTC 2016-05-23 20:25:13
    Writing application : mkvmerge v8.5.2 ('Crosses') 64bit
    Writing library : libebml v1.3.3 + libmatroska v1.4.4
    Video
    ID : 1
    Format : AVC
    Format/Info : Advanced Video Codec
    Format profile : High@L4.1
    Format settings, CABAC : Yes
    Format settings, ReFrames : 12 frames
    Codec ID : V_MPEG4/ISO/AVC
    Duration : 1h 36mn
    Bit rate : 1 965 Kbps
    Width : 720 pixels
    Height : 558 pixels
    Display aspect ratio : 1.376
    Frame rate mode : Constant
    Frame rate : 25.000 fps
    Color space : YUV
    Chroma subsampling : 4:2:0
    Bit depth : 8 bits
    Scan type : Progressive
    Bits/(Pixel*Frame) : 0.196
    Stream size : 1.33 GiB (91%)
    Title : Бакенбарды
    Writing library : x264 core 148 r2638 7599210
    Encoding settings : cabac=1 / ref=12 / deblock=1:-1:-1 / analyse=0x3:0x113 / me=umh / subme=11 / psy=1 / psy_rd=1.00:0.05 / mixed_ref=1 / me_range=32 / chroma_me=1 / trellis=2 / 8x8dct=1 / cqm=0 / deadzone=21,11 / fast_pskip=0 / chroma_qp_offset=-3 / threads=6 / lookahead_threads=1 / sliced_threads=0 / nr=0 / decimate=1 / interlaced=0 / bluray_compat=0 / constrained_intra=0 / bframes=10 / b_pyramid=2 / b_adapt=2 / b_bias=0 / direct=3 / weightb=1 / open_gop=0 / weightp=2 / keyint=250 / keyint_min=25 / scenecut=40 / intra_refresh=0 / rc=2pass / mbtree=0 / bitrate=1965 / ratetol=1.0 / qcomp=0.60 / qpmin=0 / qpmax=69 / qpstep=4 / cplxblur=20.0 / qblur=0.5 / ip_ratio=1.40 / pb_ratio=1.30 / aq=1:1.00
    Language : Russian
    Default : Yes
    Forced : No
    Audio
    ID : 2
    Format : AC-3
    Format/Info : Audio Coding 3
    Mode extension : CM (complete main)
    Format settings, Endianness : Big
    Codec ID : A_AC3
    Duration : 1h 36mn
    Bit rate mode : Constant
    Bit rate : 192 Kbps
    Channel(s) : 2 channels
    Channel positions : Front: L R
    Sampling rate : 48.0 KHz
    Frame rate : 31.250 fps (1536 spf)
    Compression mode : Lossy
    Stream size : 133 MiB (9%)
    Title : Original
    Language : Russian
    Default : Yes
    Forced : No

    Скриншоты

    Скачать .torrent

    Скачать торрент-файл бесплатно и на максимальной скорости!

    Как скачивать? · Что такое торрент? · Рейтинг и ограничения

    !ВНИМАНИЕ!
    Сайт не распространяет и не хранит электронные версии произведений, а занимается лишь лишь предоставлением доступа к создаваемому пользователями каталогу ссылок на торрент-файлы, которые содержат только списки хеш-сумм, убедительная просьба с жалобами обращаться напрямую к пользователю. Файлы для обмена на трекере предоставлены пользователями сайта, и администрация не несёт ответственности за их содержание. Просьба не заливать файлы, защищенные авторскими правами, а также файлы нелегального содержания!


    _________________
    [Профиль] [ЛС]
    Показать сообщения:    
    Ответить на тему

    Текущее время: Сегодня, в 00:36

    Часовой пояс: GMT + 2



    Вы не можете начинать темы
    Вы не можете отвечать на сообщения
    Вы не можете редактировать свои сообщения
    Вы не можете удалять свои сообщения
    Вы не можете голосовать в опросах
    Вы не можете прикреплять файлы к сообщениям
    Вы не можете скачивать файлы