BitTorrentTracker PerecTracker.org
BitTorrentTracker PerecTracker.org
    
Регистрация  ·  Вход
 
 · 
Забыли пароль?

  • Тихая охота / Сезон: 1 / Серии: 1-30 из 30 (Сергей Артимович, Владимир Штерянов) [2014, детектив, криминальный фильм, WEBRip]

    Ответить на тему
     
    Автор Сообщение

    rechyn

    Создавать темы 23-Май-2016 21:43

           

    [Цитировать]

    Тихая охота
    Год выпуска: 2014
    Производство: Star Media
    Жанр: детектив, криминальный фильм
    Продолжительность: 00:45:00
    Субтитры: нет
    Режиссёр: Сергей Артимович, Владимир Штерянов
    В ролях: Максим Дрозд, Павел Баршак, Владимир Стержаков, Анна Зайцева, Павел Трубинер, Александр Тютин, Александр Цуркан, Елена Радевич, Николай Козак, Сергей Сосновский, Кристина Бабушкина, Дарья Повереннова, Валерий Афанасьев, Юлия Рутберг
    Описание: «Тихая охота» – сериал о работе одного из подразделений криминальной полиции – отдела уголовного розыска по борьбе с карманными кражами.
    На профессиональном сленге сотрудников этого отдела называют - "тихари". Собственно это и есть отличительная особенность их службы: незаметная, кропотливая и ювелирно точная "тихая охота" за самой что ни на есть "элитой" криминального мира - "щипачами". Карманники работают тихо, вычисляют в толпе жертву и с филигранной точностью забирают у нее все «ненужное» — кошельки, телефоны, украшения. А ведь операм нужно не просто "вычислить" злодея. Его нужно еще и взять. И не просто взять, а взять с поличным, да так, чтобы у следствия и суда не возникло даже тени сомнения в том, что пойманный злоумышленник непременно "должен сидеть в тюрьме".

    Автор рипа: SANNYa
    Все раздачи сериала: Тихая охота


    Качество: WEBRip
    Формат: AVI
    Видео кодек: XviD
    Аудио кодек: AC3
    Видео: MPEG-4 Visual, ~1500 Кбит/сек, 720х400, 25 кадр/с
    Аудио: AC3, 2 ch, 192 Кбит/сек

    MI

    Общее
    Полное имя                               : C:\otkat\Видео\Тихая охота_WEB-DLRip_by_SANNYa\Тихая охота_01_WEB-DLRip_by_SANNYa.avi
    Формат                                   : AVI
    Формат/Информация                        : Audio Video Interleave
    Размер файла                             : 551 Мбайт
    Продолжительность                        : 44 м.
    Общий поток                              : 1747 Кбит/сек
    Программа кодирования                    : VirtualDubMod 1.5.10.3 | www.virtualdub-fr.org || (build 2550/release)
    Библиотека кодирования                   : VirtualDubMod build 2550/release
    Видео
    Идентификатор                            : 0
    Формат                                   : MPEG-4 Visual
    Профиль формата                          : Advanced Simple@L5
    Параметр BVOP формата                    : 1
    Параметр QPel формата                    : Нет
    Параметр GMC формата                     : Без точки перехода
    Параметр матрицы формата                 : Выборочная
    Идентификатор кодека                     : XVID
    Идентификатор кодека/Подсказка           : XviD
    Продолжительность                        : 44 м.
    Битрейт                                  : 1545 Кбит/сек
    Ширина                                   : 720 пикселей
    Высота                                   : 400 пикселей
    Соотношение сторон                       : 16:9
    Частота кадров                           : 25,000 кадров/сек
    Цветовое пространство                    : YUV
    Субдискретизация насыщенности            : 4:2:0
    Битовая глубина                          : 8 бит
    Тип развёртки                            : Прогрессивная
    Метод сжатия                             : С потерями
    Бит/(Пиксели*Кадры)                      : 0.215
    Размер потока                            : 487 Мбайт (88%)
    Библиотека кодирования                   : XviD 73
    Аудио
    Идентификатор                            : 1
    Формат                                   : AC-3
    Формат/Информация                        : Audio Coding 3
    Расширение режима                        : CM (complete main)
    Параметр Endianness формата              : Big
    Идентификатор кодека                     : 2000
    Продолжительность                        : 44 м.
    Вид битрейта                             : Постоянный
    Битрейт                                  : 192 Кбит/сек
    Каналы                                   : 2 канала
    Расположение каналов                     : Front: L R
    Частота                                  : 48,0 КГц
    Частота кадров                           : 31,250 кадров/сек (1536 spf)
    Метод сжатия                             : С потерями
    Размер потока                            : 60,5 Мбайт (11%)
    Выравнивание                             : Разделение по промежуткам
    Продолжительность промежутка             : 40  мс. (1,00 видеокадр)
    Время предзагрузки промежутка            : 500  мс.

    Скриншоты

    Скачать .torrent

    Скачать торрент-файл бесплатно и на максимальной скорости!

    Как скачивать? · Что такое торрент? · Рейтинг и ограничения

    !ВНИМАНИЕ!
    Сайт не распространяет и не хранит электронные версии произведений, а занимается лишь лишь предоставлением доступа к создаваемому пользователями каталогу ссылок на торрент-файлы, которые содержат только списки хеш-сумм, убедительная просьба с жалобами обращаться напрямую к пользователю. Файлы для обмена на трекере предоставлены пользователями сайта, и администрация не несёт ответственности за их содержание. Просьба не заливать файлы, защищенные авторскими правами, а также файлы нелегального содержания!


    _________________
    [Профиль] [ЛС]
    Показать сообщения:    
    Ответить на тему

    Текущее время: Сегодня, в 16:34

    Часовой пояс: GMT + 2



    Вы не можете начинать темы
    Вы не можете отвечать на сообщения
    Вы не можете редактировать свои сообщения
    Вы не можете удалять свои сообщения
    Вы не можете голосовать в опросах
    Вы не можете прикреплять файлы к сообщениям
    Вы не можете скачивать файлы