Register  ·  Log in
Forgot password?

  • Бедные люди / Серии: 1-17 из 17 (Жанна Кадникова) [2016, Комедия, SATRip]

    Reply to topic
    Author Message


    Post 23-May-2016 22:25



    Бедные люди-Год выпуска: 2016
    Производство: Россия, Good Story Media
    Жанр: Комедия
    Продолжительность: 00:25:00
    Режиссёр: Жанна Кадникова
    Субтитры: нет-В ролях: Дмитрий Лысенков, Александр Адабашьян, Алиса Гребенщикова, Павел Сборщиков, Ангелина Миримская, Максим Филипьев, Марина Богатова, Александр Мехряков, Екатерина Караченцева-Описание: История интеллигентного неудачника, который живёт в коммунальной квартире Петербурга, работает «литературным негром» у Ольги Бузовой и пишет от её лица автобиографию. Чисто питерский комедийный сериал, рассказывающий историю не только писателя Вени и Ольги Бузовой, но и жителей коммунальной квартиры, в которой снимает комнату главный герой: провинциальной учительницы танцев, по ошибке ставшей стриптизершей, дилера, завязавшего с криминальным прошлым и суррогатной матери, вынашивающей ребенка за деньги.- l -Все раздачи сериала-Качество: SATRip
    Формат: AVI
    Видео кодек: XviD
    Аудио кодек: MP3
    Видео: 720x400 (16:9), 25.000 fps, XviD 67, 1288 Kbps, 0.18 bit/pixel
    Аудио: 48.0 kHz, MP3, 2 ch, 192 Kbps


    Complete name : Downloads\Бедные люди 2016 SATRip
    Format : AVI
    Format/Info : Audio Video Interleave
    File size : 256 MiB
    Duration : 23mn 58s
    Overall bit rate : 1 490 Kbps
    Writing application : VirtualDubMod (build 2550/release)
    Writing library : VirtualDubMod build 2550/release
    Video #0
    ID : 0
    Format : MPEG-4 Visual
    Format profile : Advanced Simple@L5
    Format settings, BVOP : 1
    Format settings, QPel : No
    Format settings, GMC : No warppoints
    Format settings, Matrix : Default (H.263)
    Codec ID : XVID
    Codec ID/Hint : XviD
    Duration : 23mn 58s
    Bit rate : 1 288 Kbps
    Width : 720 pixels
    Height : 400 pixels
    Display aspect ratio : 16:9
    Frame rate : 25.000 fps
    Color space : YUV
    Chroma subsampling : 4:2:0
    Bit depth : 8 bits
    Scan type : Progressive
    Compression mode : Lossy
    Bits/(Pixel*Frame) : 0.179
    Stream size : 221 MiB (86%)
    Writing library : XviD 67
    Audio #1
    ID : 1
    Format : MPEG Audio
    Format version : Version 1
    Format profile : Layer 3
    Mode : Joint stereo
    Mode extension : MS Stereo
    Codec ID : 55
    Codec ID/Hint : MP3
    Duration : 23mn 58s
    Bit rate mode : Constant
    Bit rate : 192 Kbps
    Channel(s) : 2 channels
    Sampling rate : 48.0 KHz
    Compression mode : Lossy
    Stream size : 32.9 MiB (13%)
    Alignment : Split accross interleaves
    Interleave, duration : 40 ms (1.00 video frame)
    Interleave, preload duration : 500 ms
    Writing library : LAMEUU€


    Download .torrent

    Download free and at maximum speed!

    How to Download? · What is a torrent? · Ratings and Limitations

    The site does not extend and does not store electronic(digital) versions of products, and only gives access to a reference catalogue created by users on torrent-files which contain only lists of the hash-sums, the earnest entreaty, with complaints(abuse) to access directly to the user. Files for an exchange on tracker are given by users of a site, and the administration does not bear the responsibility for their maintenance. The request to not fill in the files protected by copyrights, and also files of the illegal maintenance!

    [Profile] [PM]
    Display posts from previous:    
    Reply to topic

    The time now is: Today 00:56

    All times are GMT + 3 Hours

    You cannot post new topics in this forum
    You cannot reply to topics in this forum
    You cannot edit your posts in this forum
    You cannot delete your posts in this forum
    You cannot vote in polls in this forum
    You cannot attach files in this forum
    You cannot download files in this forum