BitTorrentTracker PerecTracker.org
BitTorrentTracker PerecTracker.org
    
Регистрация  ·  Вход
 
 · 
Забыли пароль?

  • Ищейка / Серии: 1-16 из 16 (Дмитрий Брусникин) [2015, детектив, WEBRip]

    Ответить на тему
     
    Автор Сообщение

    rechyn

    Создавать темы 23-Май-2016 21:22

           

    [Цитировать]

    ИщейкаГод выпуска: 2015
    Производство: Россия, Стар медиа
    Жанр: детектив
    Продолжительность: 00:50:00
    Субтитры: нет
    Режиссер: Дмитрий Брусникин
    В ролях: Анна Банщикова, Александр Макогон, Андрей Казаков, Дмитрий Куличков, Денис Бургазлиев, Владислав Павлов, Эдуард Чекмазов, Владимир Николенко, Полина Сидихина, Михаил Горевой, Алексей Черных, Артем Цыпин, Денис Бобышев, Геннадий Ёлкин, Павел Трубинер, Анастасия Федоркова, Виктор Проскурин, Максим Коновалов, Михаил Шкамаридин, Алексей Гришин, Елизавета Кононова, Олег Метелев, Марина Брусникина, Алексей Розин, Сергей Ююкин, Григорий Иванец, Алёна Ивченко, Андрей Стоянов, Олег Радченко, Владимир Литвинов, Олег Мазуров, Евгений Сидихин, Павел Новиков, Илья Барабанов, Сергей Удовик, Сергей Юшкевич, Сергей Рост, Артур Ваха, Глеб Подгородинский, Екатерина Маликова, Дмитрий Муляр, Евгений Никитин, Екатерина Сахарова, Ирина Пулина, Андрей Ташков, Алла Захарова, Ярослав Леонов, Борис Шувалов, Геннадий Пачис, Кристина Курбанова, Людмила Дорошева, Светлана Голубь
    Описание: Подполковника полиции Александру Ивановну Кушнир переводят из Москвы в небольшой приморский город на берегу Черного моря на должность начальника Уголовного розыска. Ее встречают в штыки несколько вялых сотрудников, так еще и начальником Александры становится ее бывший возлюбленный. За глаза Кушнир называют "Ищейкой". Для нее, профессионального следователя, умницы, тонкого психолога, а главное, настоящего фаната своего дела, не существует ни препятствий, ни разницы в масштабах преступлений. Есть только одна задача: вывести на чистую воду преступника, и с этим она отлично справляется...
    Релиз группа
    Все раздачи сериала
    Сэмпл
    Качество: WEBRip
    Формат: AVI
    Видео кодек: XviD
    Аудио кодек: AC3
    Видео: 720x400 (1.80:1), 25 fps, XviD build 73 ~1515 kbps avg, 0.22 bit/pixel
    Аудио: 48 kHz, AC3 Dolby Digital, 2/0 (L,R) ch, ~192.00 kbps avg

    MI

    General
    Complete name : X:\раздачи\Ищейкка.2015.WEB-DLRip.RG.Russkie.serialy.&.Files-x.Ищейкка.2015.WEB-DLRip.RG.Russkie.serialy.&.Files-x.avi
    Format : AVI
    Format/Info : Audio Video Interleave
    File size : 650 MiB
    Duration : 52mn 55s
    Overall bit rate : 1 716 Kbps
    Writing application : VirtualDubMod 1.5.10.3 | www.virtualdub-fr.org || (build 2550/release)
    Writing library : VirtualDubMod build 2550/release
    Video
    ID : 0
    Format : MPEG-4 Visual
    Format profile : Advanced Simple@L5
    Format settings, BVOP : 1
    Format settings, QPel : No
    Format settings, GMC : No warppoints
    Format settings, Matrix : Custom
    Codec ID : XVID
    Codec ID/Hint : XviD
    Duration : 52mn 55s
    Bit rate : 1 515 Kbps
    Width : 720 pixels
    Height : 400 pixels
    Display aspect ratio : 16:9
    Frame rate : 25.000 fps
    Color space : YUV
    Chroma subsampling : 4:2:0
    Bit depth : 8 bits
    Scan type : Progressive
    Compression mode : Lossy
    Bits/(Pixel*Frame) : 0.210
    Stream size : 573 MiB (88%)
    Writing library : XviD 73
    Audio
    ID : 1
    Format : AC-3
    Format/Info : Audio Coding 3
    Mode extension : CM (complete main)
    Format settings, Endianness : Big
    Codec ID : 2000
    Duration : 52mn 55s
    Bit rate mode : Constant
    Bit rate : 192 Kbps
    Channel(s) : 2 channels
    Channel positions : Front: L R
    Sampling rate : 48.0 KHz
    Frame rate : 31.250 fps (1536 spf)
    Compression mode : Lossy
    Stream size : 72.7 MiB (11%)
    Alignment : Split accross interleaves
    Interleave, duration : 40 ms (1.00 video frame)
    Interleave, preload duratio : 500 ms

    Скриншоты


    Скачать .torrent

    Скачать торрент-файл бесплатно и на максимальной скорости!

    Как скачивать? · Что такое торрент? · Рейтинг и ограничения

    !ВНИМАНИЕ!
    Сайт не распространяет и не хранит электронные версии произведений, а занимается лишь лишь предоставлением доступа к создаваемому пользователями каталогу ссылок на торрент-файлы, которые содержат только списки хеш-сумм, убедительная просьба с жалобами обращаться напрямую к пользователю. Файлы для обмена на трекере предоставлены пользователями сайта, и администрация не несёт ответственности за их содержание. Просьба не заливать файлы, защищенные авторскими правами, а также файлы нелегального содержания!


    _________________
    [Профиль] [ЛС]
    Показать сообщения:    
    Ответить на тему

    Текущее время: Сегодня, в 00:21

    Часовой пояс: GMT + 2



    Вы не можете начинать темы
    Вы не можете отвечать на сообщения
    Вы не можете редактировать свои сообщения
    Вы не можете удалять свои сообщения
    Вы не можете голосовать в опросах
    Вы не можете прикреплять файлы к сообщениям
    Вы не можете скачивать файлы