BitTorrentTracker PerecTracker.org
BitTorrentTracker PerecTracker.org
    
Регистрация  ·  Вход
 
 · 
Забыли пароль?

  • Спроси мое имя / Bana Adini Sor (М. Танер Гюндёнер) [2015, Турция, Мелодрама, WEBRip] VO (Бислан Князь)

    Ответить на тему
     
    Автор Сообщение

    Light

    Создавать темы 23-Май-2016 20:38

           

    [Цитировать]

    Спроси мое имя / Bana Adini Sor
    Страна: Турция
    Производство: Mars Entertainment Group
    Жанр: Мелодрама
    Год выпуска: 2015
    Продолжительность: 1:38:17

    Перевод: Одноголосый закадровый Бислан Князь
    Cубтитры: нет
    Оригинальная аудиодорожка: нет
    Режиссер: М. Танер Гюндёнер
    В ролях:
    Бахар Акча (Серап), Озге Борак (Ясемин), Энгин Хепилери (Хакан), Барыш Хайта (Тарик), Башак Парлак (Мерве), Левент Сюлюн, Неджми Айкар (Ашджыбашы), Джихат Тамер (Осман Баба), Ипек Тенолджай (Дила), Елиз Тозан, Атаберк Мутлу (Хакан Кючюклюйю), Сертач Айваз
    Описание: Фильм предлагает вниманию зрителей историю о сложных взаимоотношениях в любовном треугольнике. Сюжет фильма знаком любому поклоннику жанра романтической драмы. Хакан и Ясмин были связаны хорошими дружескими отношениями ещё с детских лет. Они всегда оставались настоящими друзьями и, повзрослев, сохранили свою дружбу. Героиня Ясмин испытывает чувство любви к Хакану, но, к сожалению, безответно. Эти неполноценные отношения длятся, пока в сюжете не появляется новый участник любовного треугольника – Мерве. В ситуации возникает интрига.
    В этом сериале главная мужская роль досталась Энгину Хепилери, уже зарекомендовавшему себя в турецком кинематографе и известному зрителям по сериалу «Месть», двух других главных героев исполняют Башак Парлак и Озге Борак, принимавшие участие в сериалах «Под сенью лип» и «Судьбы сестер».

    Сэмпл: http://multi-up.com/1102560
    Качество видео: WEBRip
    Формат видео: AVI
    Видео кодек: XviD
    Аудио кодек: MP3
    Видео: 720x400 (1.80:1), 25 fps, XviD build 73 ~1609 kbps avg, 0.22 bit/pixel
    Аудио: 44.100 kHz, MPEG Layer 3, 2 ch, ~192.00 kbps avg

    MediaInfo

    Формат : AVI
    Формат/Информация : Audio Video Interleave
    Размер файла : 1,24 Гбайт
    Продолжительность : 1 ч. 38 м.
    Общий поток : 1811 Кбит/сек
    Видео
    Идентификатор : 0
    Формат : MPEG-4 Visual
    Профиль формата : Advanced Simple@L5
    Параметр BVOP формата : 2
    Параметр QPel формата : Нет
    Параметр GMC формата : Без точки перехода
    Параметр матрицы формата : Default (H.263)
    Идентификатор кодека : XVID
    Идентификатор кодека/Подсказка : XviD
    Продолжительность : 1 ч. 38 м.
    Битрейт : 1610 Кбит/сек
    Ширина : 720 пикселей
    Высота : 400 пикселей
    Соотношение сторон : 16:9
    Частота кадров : 25,000 кадров/сек
    Цветовое пространство : YUV
    Субдискретизация насыщенности : 4:2:0
    Битовая глубина : 8 бит
    Тип развёртки : Прогрессивная
    Метод сжатия : С потерями
    Бит/(Пиксели*Кадры) : 0.224
    Размер потока : 1,11 Гбайт (89%)
    Библиотека кодирования : XviD 73
    Аудио
    Идентификатор : 1
    Формат : MPEG Audio
    Версия формата : Version 1
    Профиль формата : Layer 3
    Режим : Joint stereo
    Идентификатор кодека : 55
    Идентификатор кодека/Подсказка : MP3
    Продолжительность : 1 ч. 38 м.
    Вид битрейта : Постоянный
    Битрейт : 192 Кбит/сек
    Каналы : 2 канала
    Частота : 44,1 КГц
    Метод сжатия : С потерями
    Размер потока : 135 Мбайт (11%)
    Выравнивание : Разделение по промежуткам
    Продолжительность промежутка : 40 мс. (1,00 видеокадр)
    Время предзагрузки промежутка : 500 мс.

    Скриншот c названием фильма

    Скриншоты

    Скачать .torrent

    Скачать торрент-файл бесплатно и на максимальной скорости!

    Как скачивать? · Что такое торрент? · Рейтинг и ограничения

    !ВНИМАНИЕ!
    Сайт не распространяет и не хранит электронные версии произведений, а занимается лишь лишь предоставлением доступа к создаваемому пользователями каталогу ссылок на торрент-файлы, которые содержат только списки хеш-сумм, убедительная просьба с жалобами обращаться напрямую к пользователю. Файлы для обмена на трекере предоставлены пользователями сайта, и администрация не несёт ответственности за их содержание. Просьба не заливать файлы, защищенные авторскими правами, а также файлы нелегального содержания!


    _________________
    [Профиль] [ЛС]
    Показать сообщения:    
    Ответить на тему

    Текущее время: Сегодня, в 17:43

    Часовой пояс: GMT + 2



    Вы не можете начинать темы
    Вы не можете отвечать на сообщения
    Вы не можете редактировать свои сообщения
    Вы не можете удалять свои сообщения
    Вы не можете голосовать в опросах
    Вы не можете прикреплять файлы к сообщениям
    Вы не можете скачивать файлы