Register  ·  Log in
Forgot password?

  • По следу белого фургона (Олег Розенберг) [1991, семейный, VHSRip]

    Reply to topic
    Author Message


    Post 23-May-2016 21:38



    По следу белого фургона
    Жанр: семейный
    Год выпуска: 1991 (1992 ?)
    Продолжительность: 01:04:00
    Режиссёр: Олег Розенберг
    В ролях: Карлис Берзиньш, Янис Пенцис, Нормундас Апинис, Антра Лиедскалныня, Янис Зариньш
    Описание: По рассказам Зенты Эргле.
    Три друга мечтают приобрести щенков сенбернара. Но на их пути возникают преграды, для преодоления которых требуются находчивость и сообразительность...
    Доп. информация: Оцифровка VHS от Fikaloid.

    Качество видео: VHSRip
    Формат видео: AVI
    Видео: 560x480 (1.17:1), 25 fps, XviD MPEG-4 ~1597 kbps avg, 0.24 bit/pixel
    Аудио: 48 kHz, AC3 Dolby Digital, 2/0 (L,R) ch, ~256 kbps


    По следу белого фургона (1991) [by Fikaloid].avi
    Format : AVI
    Format/Info : Audio Video Interleave
    File size : 853 MiB
    Duration : 1h 4mn
    Overall bit rate : 1 863 Kbps
    Movie name : По следу белого фургона (1991) [by Fikaloid]
    Director : by Fikaloid
    Copyright : Edich2
    Comment :
    ID : 0
    Format : MPEG-4 Visual
    Format profile : Advanced Simple@L5
    Format settings, BVOP : 1
    Format settings, QPel : No
    Format settings, GMC : No warppoints
    Format settings, Matrix : Default (MPEG)
    Muxing mode : Packed bitstream
    Codec ID : XVID
    Codec ID/Hint : XviD
    Duration : 1h 4mn
    Bit rate : 1 598 Kbps
    Width : 560 pixels
    Height : 480 pixels
    Display aspect ratio : 1.167
    Frame rate : 25.000 fps
    Color space : YUV
    Chroma subsampling : 4:2:0
    Bit depth : 8 bits
    Scan type : Progressive
    Compression mode : Lossy
    Bits/(Pixel*Frame) : 0.238
    Stream size : 731 MiB (86%)
    Writing library : XviD 73
    ID : 1
    Format : AC-3
    Format/Info : Audio Coding 3
    Mode extension : CM (complete main)
    Format settings, Endianness : Big
    Codec ID : 2000
    Duration : 1h 4mn
    Bit rate mode : Constant
    Bit rate : 256 Kbps
    Channel(s) : 2 channels
    Channel positions : Front: L R
    Sampling rate : 48.0 KHz
    Frame rate : 31.250 fps (1536 spf)
    Compression mode : Lossy
    Stream size : 117 MiB (14%)
    Alignment : Aligned on interleaves
    Interleave, duration : 40 ms (1.00 video frame)
    Interleave, preload duratio : 512 ms


    Download .torrent

    Download free and at maximum speed!

    How to Download? · What is a torrent? · Ratings and Limitations

    The site does not extend and does not store electronic(digital) versions of products, and only gives access to a reference catalogue created by users on torrent-files which contain only lists of the hash-sums, the earnest entreaty, with complaints(abuse) to access directly to the user. Files for an exchange on tracker are given by users of a site, and the administration does not bear the responsibility for their maintenance. The request to not fill in the files protected by copyrights, and also files of the illegal maintenance!

    [Profile] [PM]
    Display posts from previous:    
    Reply to topic

    The time now is: Today 03:35

    All times are GMT + 3 Hours

    You cannot post new topics in this forum
    You cannot reply to topics in this forum
    You cannot edit your posts in this forum
    You cannot delete your posts in this forum
    You cannot vote in polls in this forum
    You cannot attach files in this forum
    You cannot download files in this forum