BitTorrentTracker PerecTracker.org
BitTorrentTracker PerecTracker.org
    
Регистрация  ·  Вход
 
 · 
Забыли пароль?

  • По следу белого фургона (Олег Розенберг) [1991, семейный, VHSRip]

    Ответить на тему
     
    Автор Сообщение

    Flirldrerve

    Создавать темы 23-Май-2016 20:38

           

    [Цитировать]

    По следу белого фургона
    Жанр: семейный
    Год выпуска: 1991 (1992 ?)
    Продолжительность: 01:04:00
    Режиссёр: Олег Розенберг
    В ролях: Карлис Берзиньш, Янис Пенцис, Нормундас Апинис, Антра Лиедскалныня, Янис Зариньш
    Описание: По рассказам Зенты Эргле.
    Три друга мечтают приобрести щенков сенбернара. Но на их пути возникают преграды, для преодоления которых требуются находчивость и сообразительность...
    Доп. информация: Оцифровка VHS от Fikaloid.

    Релиз
    Сэмпл: https://yadi.sk/i/-2Rj7c4QrvitB
    Качество видео: VHSRip
    Формат видео: AVI
    Видео: 560x480 (1.17:1), 25 fps, XviD MPEG-4 ~1597 kbps avg, 0.24 bit/pixel
    Аудио: 48 kHz, AC3 Dolby Digital, 2/0 (L,R) ch, ~256 kbps

    MediaInfo

    По следу белого фургона (1991) [by Fikaloid].avi
    Format : AVI
    Format/Info : Audio Video Interleave
    File size : 853 MiB
    Duration : 1h 4mn
    Overall bit rate : 1 863 Kbps
    Movie name : По следу белого фургона (1991) [by Fikaloid]
    Director : by Fikaloid
    Copyright : Edich2
    Comment : RuTracker.org
    Video
    ID : 0
    Format : MPEG-4 Visual
    Format profile : Advanced Simple@L5
    Format settings, BVOP : 1
    Format settings, QPel : No
    Format settings, GMC : No warppoints
    Format settings, Matrix : Default (MPEG)
    Muxing mode : Packed bitstream
    Codec ID : XVID
    Codec ID/Hint : XviD
    Duration : 1h 4mn
    Bit rate : 1 598 Kbps
    Width : 560 pixels
    Height : 480 pixels
    Display aspect ratio : 1.167
    Frame rate : 25.000 fps
    Color space : YUV
    Chroma subsampling : 4:2:0
    Bit depth : 8 bits
    Scan type : Progressive
    Compression mode : Lossy
    Bits/(Pixel*Frame) : 0.238
    Stream size : 731 MiB (86%)
    Writing library : XviD 73
    Audio
    ID : 1
    Format : AC-3
    Format/Info : Audio Coding 3
    Mode extension : CM (complete main)
    Format settings, Endianness : Big
    Codec ID : 2000
    Duration : 1h 4mn
    Bit rate mode : Constant
    Bit rate : 256 Kbps
    Channel(s) : 2 channels
    Channel positions : Front: L R
    Sampling rate : 48.0 KHz
    Frame rate : 31.250 fps (1536 spf)
    Compression mode : Lossy
    Stream size : 117 MiB (14%)
    Alignment : Aligned on interleaves
    Interleave, duration : 40 ms (1.00 video frame)
    Interleave, preload duratio : 512 ms

    Скриншоты


    Скачать .torrent

    Скачать торрент-файл бесплатно и на максимальной скорости!

    Как скачивать? · Что такое торрент? · Рейтинг и ограничения

    !ВНИМАНИЕ!
    Сайт не распространяет и не хранит электронные версии произведений, а занимается лишь лишь предоставлением доступа к создаваемому пользователями каталогу ссылок на торрент-файлы, которые содержат только списки хеш-сумм, убедительная просьба с жалобами обращаться напрямую к пользователю. Файлы для обмена на трекере предоставлены пользователями сайта, и администрация не несёт ответственности за их содержание. Просьба не заливать файлы, защищенные авторскими правами, а также файлы нелегального содержания!


    _________________
    [Профиль] [ЛС]
    Показать сообщения:    
    Ответить на тему

    Текущее время: Сегодня, в 12:43

    Часовой пояс: GMT + 2



    Вы не можете начинать темы
    Вы не можете отвечать на сообщения
    Вы не можете редактировать свои сообщения
    Вы не можете удалять свои сообщения
    Вы не можете голосовать в опросах
    Вы не можете прикреплять файлы к сообщениям
    Вы не можете скачивать файлы