BitTorrentTracker PerecTracker.org
BitTorrentTracker PerecTracker.org
    
Регистрация  ·  Вход
 
 · 
Забыли пароль?

  • Искры и угольки / Sparks and Embers (2015) DVDRip | L

    Ответить на тему
     
    Автор Сообщение

    BOSS

    Создавать темы 23-Май-2016 19:29

           

    [Цитировать]

    Искры и угольки / Sparks and Embers
    Страна: Великобритания Производство: Art4noise, Cinemagine, Gloucester Place Films, GSP Studios, Union Roth Capital
    Год выпуска: 2015
    Жанр: драма, мелодрама, комедия
    Продолжительность: 01:25:01
    Режиссер: Гэвин Бойтер
    Автор сценария: Гэвин Бойтер
    В ролях: Крис Маршалл, Аннелиз Эм, Валид Ахтар, Шон Бэйкер, Капиль Парих, Джейд Александр, Кен Бойтер
    Описание: Том и Элоиза встретились по вине неблагоприятных обстоятельств, застряв в лифте после того, как Элоиза уволила Тома. Тем не менее, между ними проскочила искра. 5 лет спустя они расстаются и Элоиза возвращается в Францию. У Тома есть 45 минут, чтобы вернуть ее...

    Перевод: Любительский (многоголосый, закадровый)
    Субтитры: нет-Качество: DVDRip
    Формат: АVI
    Видео кодек: XviD
    Аудио кодек: АС3
    Видео: 720x400 (16:9), 25.000 fps, XviD ~1 846 kbps avg, 0.282 bit/pixel
    Аудио: 48.0 kHz, AC3 Dolby Digital, 2/0 (L,R) ch, ~448 kbps
    Дата премьеры (мир): 20 октября 2015
    ПРИМЕЧАНИЕ: ПРИСУТСТВУЕТ РЕКЛАМА!

    Media Info

    General
    Format : AVI
    Format/Info : Audio Video Interleave
    Overall bit rate : 2 486 Kbps
    Writing application : VirtualDubMod 1.5.10.3 | (build 2550/release)
    Writing library : VirtualDubMod build 2550/release
    Video
    ID : 0
    Format : MPEG-4 Visual
    Format profile : Advanced Simple@L5
    Format settings, BVOP : 2
    Format settings, QPel : No
    Format settings, GMC : No warppoints
    Format settings, Matrix : Custom
    Codec ID : XVID
    Codec ID/Hint : XviD
    Bit rate : 1846 Kbps
    Width : 720 pixels
    Height : 400 pixels
    Display aspect ratio : 16:9
    Frame rate : 25.000 fps
    Color space : YUV
    Chroma subsampling : 4:2:0
    Bit depth : 8 bits
    Scan type : Progressive
    Compression mode : Lossy
    Bits/(Pixel*Frame) : 0.282
    Stream size : 14.2 MiB (82%)
    Writing library : XviD 1.2.1 (UTC 2008-12-04)
    Audio
    ID : 1
    Format : AC-3
    Format/Info : Audio Coding 3
    Mode extension : CM (complete main)
    Format settings, Endianness : Big
    Codec ID : 2000
    Bit rate mode : Constant
    Bit rate : 448 Kbps
    Channel(s) : 2 channels
    Channel positions : Front: L R
    Sampling rate : 48.0 KHz
    Compression mode : Lossy
    Delay relative to video : 24ms
    Stream size : 3.15 MiB (18%)
    Alignment : Split accross interleaves
    Interleave, duration : 40 ms (1.01 video frame)
    Interleave, preload duration : 500 ms

    Скриншоты

    Скачать .torrent

    Скачать торрент-файл бесплатно и на максимальной скорости!

    Как скачивать? · Что такое торрент? · Рейтинг и ограничения

    !ВНИМАНИЕ!
    Сайт не распространяет и не хранит электронные версии произведений, а занимается лишь лишь предоставлением доступа к создаваемому пользователями каталогу ссылок на торрент-файлы, которые содержат только списки хеш-сумм, убедительная просьба с жалобами обращаться напрямую к пользователю. Файлы для обмена на трекере предоставлены пользователями сайта, и администрация не несёт ответственности за их содержание. Просьба не заливать файлы, защищенные авторскими правами, а также файлы нелегального содержания!

    [Профиль] [ЛС]
    Показать сообщения:    
    Ответить на тему

    Текущее время: Сегодня, в 06:01

    Часовой пояс: GMT + 2



    Вы не можете начинать темы
    Вы не можете отвечать на сообщения
    Вы не можете редактировать свои сообщения
    Вы не можете удалять свои сообщения
    Вы не можете голосовать в опросах
    Вы не можете прикреплять файлы к сообщениям
    Вы не можете скачивать файлы