BitTorrentTracker PerecTracker.org
BitTorrentTracker PerecTracker.org
    
Регистрация  ·  Вход
 
 · 
Забыли пароль?

  • Боги Египта / Gods of Egypt (Алекс Пройас / Alex Proyas) [2016, США, фэнтези, боевик, приключения, BDRemux 1080p] Dub + Sub Rus, Eng + Original Eng

    Ответить на тему
     
    Автор Сообщение

    Light

    Создавать темы 23-Май-2016 16:33

           

    [Цитировать]

    -Боги Египта / Gods of Egypt-Страна: США
    Студия: Mystery Clock Cinema
    Жанр: фэнтези, боевик, приключения
    Год выпуска: 2016
    Продолжительность: 02:07:02-Перевод: Профессиональный (дублированный)
    Cубтитры: русские, английские
    Оригинальная аудиодорожка: английский-Режиссер: Алекс Пройас / Alex Proyas
    В ролях: Брентон Туэйтс, Джерард Батлер, Николай Костер-Вальдау, Чедвик Боузман, Элоди Юнг, Кортни Итон, Руфус Сьюэлл, Джеффри Раш, Брайан Браун, Рэйчел Блейк-Описание: Некогда мирное и процветающее египетское царство погружается в хаос: беспощадный бог тьмы Сет убивает своего брата Осириса и узурпирует трон. Вызов ему неожиданно бросает простой смертный, находчивый молодой вор. Чтобы вернуть к жизни свою прекрасную возлюбленную, ему приходится заручиться поддержкой могущественного и мстительного бога Гора. Лишь выдержав испытание на прочность и принеся в жертву все самое дорогое, им удастся противостоять Сету и его приспешникам в мире живых и мире мертвых.-Релиз || Сэмпл-Тип релиза: BDRemux 1080p
    Контейнер: MKV
    Видео: MPEG-4 AVC Video / 28796 kbps / 1080p / 23.976 fps / 16:9 / High Profile 4.1
    Аудио: Russian / DTS-HD Master Audio / 5.1 / 48 kHz / 2227 kbps / 16-bit (DTS Core: 5.1 / 48 kHz / 1509 kbps / 16-bit)
    Аудио 2: English / DTS-HD Master Audio / 7.1 / 48 kHz / 4735 kbps / 24-bit (DTS Core: 5.1 / 48 kHz / 1509 kbps / 24-bit)
    Формат субтитров: softsub (SRT)

    MI

    GeneralUnique ID : 254663316676546802312274031333398077029 (0xBF965EE8521BA6E19B42987631A4DE65)Complete name : S:\На хранении\Боги Египта (2016. Gods of Egypt).mkvFormat : MatroskaFormat version : Version 4 / Version 2File size : 31.6 GiBDuration : 2h 7mnOverall bit rate mode : VariableOverall bit rate : 35.6 MbpsMovie name : Release for RuTrackerEncoded date : UTC 2016-05-21 09:36:27Writing application : mkvmerge v9.0.1 ('Obstacles') 64bitWriting library : libebml v1.3.3 + libmatroska v1.4.4Cover : YesAttachments : cover.jpg
    VideoID : 1Format : AVCFormat/Info : Advanced Video CodecFormat profile : High@L4.1Format settings, CABAC : YesFormat settings, ReFrames : 4 framesCodec ID : V_MPEG4/ISO/AVCDuration : 2h 7mnBit rate mode : VariableBit rate : 28.7 MbpsMaximum bit rate : 37.0 MbpsWidth : 1 920 pixelsHeight : 1 080 pixelsDisplay aspect ratio : 16:9Frame rate mode : ConstantFrame rate : 23.976 (24000/1001) fpsColor space : YUVChroma subsampling : 4:2:0Bit depth : 8 bitsScan type : ProgressiveBits/(Pixel*Frame) : 0.577Stream size : 25.4 GiB (80%)Title : GODS_OF_EGYPT_REMUX_HDCLUBLanguage : EnglishDefault : YesForced : No
    Audio #1ID : 2Format : DTSFormat/Info : Digital Theater SystemsFormat profile : MA / CoreMode : 16Format settings, Endianness : BigCodec ID : A_DTSDuration : 2h 7mnBit rate mode : Variable / ConstantBit rate : 2 227 Kbps / 1 509 KbpsChannel(s) : 6 channelsChannel positions : Front: L C R, Side: L R, LFESampling rate : 48.0 KHzFrame rate : 93.750 fps (512 spf)Bit depth : 16 bitsCompression mode : Lossless / LossyStream size : 1.98 GiB (6%)Title : ДубляжLanguage : RussianDefault : YesForced : No
    Audio #2ID : 3Format : DTSFormat/Info : Digital Theater SystemsFormat profile : X / MA / CoreMode : 16Format settings, Endianness : BigCodec ID : A_DTSDuration : 2h 7mnBit rate mode : Variable / Variable / ConstantBit rate : 4 735 Kbps / 4 735 Kbps / 1 509 KbpsChannel(s) : Object Based / 8 channels / 6 channelsChannel positions : Object Based / Front: L C R, Side: L R, Back: L R, LFE / Front: L C R, Side: L R, LFESampling rate : / 48.0 KHz / 48.0 KHzFrame rate : 93.750 fps (512 spf)Bit depth : / 24 bits / 24 bitsCompression mode : / Lossless / LossyStream size : 4.20 GiB (13%)Language : EnglishDefault : NoForced : No
    Text #1ID : 4Format : UTF-8Codec ID : S_TEXT/UTF8Codec ID/Info : UTF-8 Plain TextDuration : 1h 55mnBit rate : 75 bpsCount of elements : 1064Stream size : 64.1 KiB (0%)Language : RussianDefault : NoForced : No
    Text #2ID : 5Format : UTF-8Codec ID : S_TEXT/UTF8Codec ID/Info : UTF-8 Plain TextDuration : 1h 55mnBit rate : 46 bpsCount of elements : 1221Stream size : 39.1 KiB (0%)Language : EnglishDefault : NoForced : No
    Text #3ID : 6Format : UTF-8Codec ID : S_TEXT/UTF8Codec ID/Info : UTF-8 Plain TextDuration : 1h 55mnBit rate : 52 bpsCount of elements : 1487Stream size : 44.2 KiB (0%)Title : SDHLanguage : EnglishDefault : NoForced : No
    Menu00:00:00.000 : en:00:00:00.00000:07:08.009 : en:00:07:08.00900:18:07.544 : en:00:18:07.54400:23:47.259 : en:00:23:47.25900:30:11.808 : en:00:30:11.80800:39:16.519 : en:00:39:16.51900:46:30.621 : en:00:46:30.62100:54:46.074 : en:00:54:46.07401:01:14.128 : en:01:01:14.12801:09:29.038 : en:01:09:29.03801:18:03.345 : en:01:18:03.34501:28:18.251 : en:01:28:18.25101:36:12.056 : en:01:36:12.05601:39:14.655 : en:01:39:14.65501:46:58.328 : en:01:46:58.32801:52:11.015 : en:01:52:11.015

    Скриншоты


    Скачать .torrent

    Скачать торрент-файл бесплатно и на максимальной скорости!

    Как скачивать? · Что такое торрент? · Рейтинг и ограничения

    !ВНИМАНИЕ!
    Сайт не распространяет и не хранит электронные версии произведений, а занимается лишь лишь предоставлением доступа к создаваемому пользователями каталогу ссылок на торрент-файлы, которые содержат только списки хеш-сумм, убедительная просьба с жалобами обращаться напрямую к пользователю. Файлы для обмена на трекере предоставлены пользователями сайта, и администрация не несёт ответственности за их содержание. Просьба не заливать файлы, защищенные авторскими правами, а также файлы нелегального содержания!


    _________________
    [Профиль] [ЛС]
    Показать сообщения:    
    Ответить на тему

    Текущее время: Сегодня, в 00:28

    Часовой пояс: GMT + 2



    Вы не можете начинать темы
    Вы не можете отвечать на сообщения
    Вы не можете редактировать свои сообщения
    Вы не можете удалять свои сообщения
    Вы не можете голосовать в опросах
    Вы не можете прикреплять файлы к сообщениям
    Вы не можете скачивать файлы