BitTorrentTracker PerecTracker.org
BitTorrentTracker PerecTracker.org
    
Регистрация  ·  Вход
 
 · 
Забыли пароль?

  • Восемь выходят из игры / Команда вне игры / Eight Men Out (Джон Сэйлз / John Sayles) [1988, США, драма, история, спорт, BDRip 720p] DVO + Original (Eng) + Sub (Eng)

    Ответить на тему
     
    Автор Сообщение

    Light

    Создавать темы 23-Май-2016 16:33

           

    [Цитировать]

    Восемь выходят из игры / Команда вне игры / Eight Men Out«1919. The year America saw major league baseball played a whole new way...underhanded»-Страна: США
    Жанр: драма, история, спорт
    Год выпуска: 1988
    Продолжительность: 01:59:50-Перевод: Профессиональный (двухголосый закадровый)
    Оригинальная аудиодорожка: English
    Cубтитры: English (full)
    Навигация по главам: присутствует - 9 глав-Режиссер: Джон Сэйлз / John Sayles
    В ролях: Джон Кьюсак, Клифтон Джеймс, Майкл Лернер, Кристофер Ллойд, Джон Мэхоуни, Чарли Шин, Дэвид Стрэтэйрн, Д. Б. Суини, Майкл Рукер, Перри Лэнг, Джеймс Рид, Билл Ирвин, Кевин Тиг, Стадс Теркел-Описание: В 1919 году чикагская бейсбольная команда White Sox проигрывает чемпионат. Два года спустя обнаруживается, что сделано это было нечестным путём и на команду подают иск. В процессе расследования раскрывается механизм давления на бейсбольных игроков.-
    Download sample-Качество видео: BDRip 720p | исх. BDRemux 1080p - thx: [url=profile.php?mode=viewprofile&u=6477978]Pigy[/url]
    Формат: MKV-Видео: 1 280x694 (1.85:1), 23.976 fps, H.264, 10422.76 kb/s, 0.479 bit/pixel
    Аудио №1: 48.0 kHz, AC3 Dolby Digital, 2/0 (L,R) ch, ~192 kbps avg | Профессиональный (двухголосый закадровый)
    Аудио №2: 48.0 kHz, AC3 Dolby Digital, 3/2 (L,C,R,l,r) + LFE ch, ~640 kbps avg | English
    Субтитры: English (full) | *.srt-

    MediaInfo

    General
    Unique ID : 193932226374766932056628637389343763795 (0x91E5FCFA647423F492AEE65246BD2D53)
    Complete name : D:\Фильмы\Рипы\Eight Men Out.1988.BDRip 720p.eFK tRuAVC.mkv
    Format : Matroska
    Format version : Version 4 / Version 2
    File size : 9.42 GiB
    Duration : 1h 59mn
    Overall bit rate : 11.3 Mbps
    Movie name : Восемь выходят из игры / Команда вне игры / Eight Men Out (1988) - Release for rutracker
    Encoded date : UTC 2016-05-21 19:13:12
    Writing application : mkvmerge v7.6.0 ('Garden of Dreams') 64bit built on Feb 8 2015 13:04:34
    Writing library : libebml v1.3.1 + libmatroska v1.4.2
    Attachements : cover.jpg
    DURATION : 01:59:50.528000000
    NUMBER_OF_FRAMES : 224704
    NUMBER_OF_BYTES : 575242240
    _STATISTICS_WRITING_APP : mkvmerge v7.6.0 ('Garden of Dreams') 64bit built on Feb 8 2015 13:04:34
    _STATISTICS_WRITING_DATE_UT : 2016-05-21 19:13:12
    _STATISTICS_TAGS : BPS DURATION NUMBER_OF_FRAMES NUMBER_OF_BYTES
    Video
    ID : 1
    Format : AVC
    Format/Info : Advanced Video Codec
    Format profile : High@L4.1
    Format settings, CABAC : Yes
    Format settings, ReFrames : 8 frames
    Codec ID : V_MPEG4/ISO/AVC
    Duration : 1h 59mn
    Bit rate : 10.2 Mbps
    Width : 1 280 pixels
    Height : 694 pixels
    Display aspect ratio : 1.85:1
    Frame rate mode : Constant
    Frame rate : 23.976 fps
    Color space : YUV
    Chroma subsampling : 4:2:0
    Bit depth : 8 bits
    Scan type : Progressive
    Bits/(Pixel*Frame) : 0.479
    Stream size : 8.54 GiB (91%)
    Title : eFK tRuAVC
    Writing library : x264 core 148 r2692kMod 64f4e24
    Encoding settings : cabac=1 / ref=8 / deblock=1:-3:-3 / analyse=0x3:0x113 / me=umh / subme=11 / psy=1 / fade_compensate=0.00 / psy_rd=1.03:0.00 / mixed_ref=1 / me_range=48 / chroma_me=1 / trellis=2 / 8x8dct=1 / cqm=0 / deadzone=21,11 / fast_pskip=0 / chroma_qp_offset=-2 / threads=12 / lookahead_threads=3 / sliced_threads=0 / nr=0 / decimate=1 / interlaced=0 / bluray_compat=0 / constrained_intra=0 / fgo=0 / bframes=16 / b_pyramid=2 / b_adapt=2 / b_bias=0 / direct=3 / weightb=1 / open_gop=0 / weightp=2 / keyint=250 / keyint_min=23 / scenecut=40 / intra_refresh=0 / rc_lookahead=60 / rc=crf / mbtree=0 / crf=16.7000 / qcomp=0.60 / qpmin=0 / qpmax=69 / qpstep=4 / vbv_maxrate=62500 / vbv_bufsize=78125 / crf_max=0.0 / nal_hrd=none / filler=0 / ip_ratio=1.40 / pb_ratio=1.30 / aq=3:0.80
    Language : English
    Default : Yes
    Forced : No
    Color range : Limited
    Color primaries : BT.709
    Transfer characteristics : BT.709
    Matrix coefficients : BT.709
    DURATION : 01:59:50.475000000
    NUMBER_OF_FRAMES : 172399
    NUMBER_OF_BYTES : 9368071292
    _STATISTICS_WRITING_APP : mkvmerge v7.6.0 ('Garden of Dreams') 64bit built on Feb 8 2015 13:04:34
    _STATISTICS_WRITING_DATE_UT : 2016-05-21 19:13:12
    _STATISTICS_TAGS : BPS DURATION NUMBER_OF_FRAMES NUMBER_OF_BYTES
    Audio #1
    ID : 2
    Format : AC-3
    Format/Info : Audio Coding 3
    Mode extension : CM (complete main)
    Format settings, Endianness : Big
    Codec ID : A_AC3
    Duration : 1h 59mn
    Bit rate mode : Constant
    Bit rate : 192 Kbps
    Channel(s) : 2 channels
    Channel positions : Front: L R
    Sampling rate : 48.0 KHz
    Compression mode : Lossy
    Stream size : 165 MiB (2%)
    Title : Профессиональный (двухголосый закадровый)
    Language : Russian
    Default : Yes
    Forced : No
    Audio #2
    ID : 3
    Format : AC-3
    Format/Info : Audio Coding 3
    Mode extension : CM (complete main)
    Format settings, Endianness : Big
    Codec ID : A_AC3
    Duration : 1h 59mn
    Bit rate mode : Constant
    Bit rate : 640 Kbps
    Channel(s) : 6 channels
    Channel positions : Front: L C R, Side: L R, LFE
    Sampling rate : 48.0 KHz
    Compression mode : Lossy
    Stream size : 549 MiB (6%)
    Language : English
    Default : No
    Forced : No
    Text
    ID : 4
    Format : UTF-8
    Codec ID : S_TEXT/UTF8
    Codec ID/Info : UTF-8 Plain Text
    Title : full
    Language : English
    Default : No
    Forced : No
    Menu
    00:00:00.000 : :Chapter 1
    00:00:10.193 : :Chapter 2
    00:12:56.292 : :Chapter 3
    00:28:01.863 : :Chapter 4
    00:43:13.191 : :Chapter 5
    00:56:58.557 : :Chapter 6
    01:12:11.010 : :Chapter 7
    01:30:54.716 : :Chapter 8
    01:48:14.963 : :Chapter 9

    x264 log

    x264 [info]: frame I:1036 Avg QP:16.20 size:124695
    x264 [info]: frame P:31969 Avg QP:17.67 size: 77890
    x264 [info]: frame B:139394 Avg QP:19.70 size: 48415
    x264 [info]: consecutive B-frames: 1.1% 1.4% 5.9% 9.1% 11.1% 53.0% 4.9% 2.3% 2.0% 2.2% 2.0% 3.2% 0.7% 0.5% 0.2% 0.2% 0.2%
    x264 [info]: mb I I16..4: 2.8% 90.3% 6.9%
    x264 [info]: mb P I16..4: 0.2% 39.0% 1.2% P16..4: 18.2% 25.9% 11.8% 0.0% 0.0% skip: 3.7%
    x264 [info]: mb B I16..4: 0.0% 8.9% 0.1% B16..8: 37.4% 26.8% 7.1% direct:10.7% skip: 9.0% L0:48.1% L1:38.8% BI:13.1%
    x264 [info]: 8x8 transform intra:97.1% inter:60.9%
    x264 [info]: direct mvs spatial:100.0% temporal:0.0%
    x264 [info]: coded y,uvDC,uvAC intra: 98.2% 86.0% 60.9% inter: 68.7% 36.6% 3.9%
    x264 [info]: i16 v,h,dc,p: 59% 11% 10% 21%
    x264 [info]: i8 v,h,dc,ddl,ddr,vr,hd,vl,hu: 9% 7% 12% 10% 14% 12% 12% 11% 13%
    x264 [info]: i4 v,h,dc,ddl,ddr,vr,hd,vl,hu: 17% 5% 6% 9% 15% 14% 12% 11% 11%
    x264 [info]: i8c dc,h,v,p: 46% 24% 17% 14%
    x264 [info]: Weighted P-Frames: Y:12.2% UV:6.3%
    x264 [info]: ref P L0: 37.4% 10.1% 18.7% 10.0% 8.2% 6.2% 5.4% 3.5% 0.5% 0.0%
    x264 [info]: ref B L0: 62.3% 15.6% 9.5% 5.5% 4.2% 2.3% 0.6%
    x264 [info]: ref B L1: 90.8% 9.2%
    x264 [info]: kb/s:10422.76
    x264 [total]: encoded 172399 frames, 5.07 fps, 10422.76 kb/s, duration 9:26:10.63

    Screenshots

    ComparisonSource

    Encode
    http://perectracker.org/http://perectracker.org/viewtopic.php?t=4423826 http://screenshotcomparison.com/comparison/173548



    Скачать .torrent

    Скачать торрент-файл бесплатно и на максимальной скорости!

    Как скачивать? · Что такое торрент? · Рейтинг и ограничения

    !ВНИМАНИЕ!
    Сайт не распространяет и не хранит электронные версии произведений, а занимается лишь лишь предоставлением доступа к создаваемому пользователями каталогу ссылок на торрент-файлы, которые содержат только списки хеш-сумм, убедительная просьба с жалобами обращаться напрямую к пользователю. Файлы для обмена на трекере предоставлены пользователями сайта, и администрация не несёт ответственности за их содержание. Просьба не заливать файлы, защищенные авторскими правами, а также файлы нелегального содержания!


    _________________
    [Профиль] [ЛС]
    Показать сообщения:    
    Ответить на тему

    Текущее время: Сегодня, в 19:57

    Часовой пояс: GMT + 2



    Вы не можете начинать темы
    Вы не можете отвечать на сообщения
    Вы не можете редактировать свои сообщения
    Вы не можете удалять свои сообщения
    Вы не можете голосовать в опросах
    Вы не можете прикреплять файлы к сообщениям
    Вы не можете скачивать файлы