BitTorrentTracker PerecTracker.org
BitTorrentTracker PerecTracker.org
    
Регистрация  ·  Вход
 
 · 
Забыли пароль?

  • Зависимый / Addicted (Билле Вудрафф / Bille Woodruff) [2014, США, триллер, драма, WEB-DLRip] VO (Lord32x) + Original Eng

    Ответить на тему
     
    Автор Сообщение

    Light

    Создавать темы 23-Май-2016 08:23

           

    [Цитировать]

    Зависимый / Addicted
    Страна: США
    Слоган: «Every Woman Needs an Escape» / «Каждой женщине нужен Побег»
    Жанр: триллер, драма
    Год выпуска: 2014
    Продолжительность: 01:47:51-Перевод: Одноголосный закадровый Lord32x
    Cубтитры: нет
    Оригинальная аудиодорожка: английский-Режиссер: Билле Вудрафф / Bille Woodruff-В ролях: Борис Коджо, Брэндон Гонзалес, Камерон Миллс, Дэниэл О’Каллаган, Эмаяци Коринеальди, Гаррет Хайнс, Хантер Бурк, Джон Ньюберг, Катерина Грэхэм, Мария Хауэлл, Шэрон Лил, Таша Смит-Описание: Успешная бизнес-леди Зои Рейнард добилась всего — замечательного мужа, которого она любит, двух чудесных детей и процветающей карьеры. Но на самом деле все не так просто, как выглядит со стороны. Зои ведет тайную жизнь…-Сэмпл: http://sendfile.su/1236103-Качество видео: WEB-DLRip
    Качество: HDRip (исходник: WEB-DL.1080p )
    Формат видео: MKV
    Видео: MPEG4/AVC, 1136x640, 16:9, 23.976 (24000/1001) fps, 2015 Kbps
    Аудио: AC-3, 48.0 KHz, 384 Kbps, 5.1channels | любительский
    Аудио 2: AC-3, 48.0 KHz, 384 Kbps, 5.1channels | оригинал

    MediaInfo

    Формат : Matroska
    Версия формата : Version 2
    Размер файла : 2,10 Гбайт
    Продолжительность : 1 ч. 47 м.
    Общий поток : 2785 Кбит/сек
    Дата кодирования : UTC 2016-05-22 15:04:17
    Программа кодирования : mkvmerge v7.6.0 ('Garden of Dreams') 32bit built on Feb 11 2015 00:18:47
    Библиотека кодирования : libebml v1.3.1 + libmatroska v1.4.2
    Видео
    Идентификатор : 1
    Формат : AVC
    Формат/Информация : Advanced Video Codec
    Профиль формата : High@L4.1
    Параметр CABAC формата : Да
    Параметр ReFrames формата : 9 кадров
    Идентификатор кодека : V_MPEG4/ISO/AVC
    Продолжительность : 1 ч. 47 м.
    Битрейт : 2015 Кбит/сек
    Ширина : 1136 пикселей
    Высота : 640 пикселей
    Соотношение сторон : 16:9
    Режим частоты кадров : Постоянный
    Частота кадров : 23,976 (24000/1001) кадра/сек
    Цветовое пространство : YUV
    Субдискретизация насыщенности : 4:2:0
    Битовая глубина : 8 бит
    Тип развёртки : Прогрессивная
    Бит/(Пиксели*Кадры) : 0.116
    Размер потока : 1,48 Гбайт (70%)
    Библиотека кодирования : x264 core 148 r2638 7599210
    Настройки программы : cabac=1 / ref=9 / deblock=1:-3:-3 / analyse=0x3:0x113 / me=umh / subme=9 / psy=1 / psy_rd=0.90:0.00 / mixed_ref=1 / me_range=32 / chroma_me=1 / trellis=2 / 8x8dct=1 / cqm=0 / deadzone=21,11 / fast_pskip=0 / chroma_qp_offset=-2 / threads=6 / lookahead_threads=1 / sliced_threads=0 / nr=0 / decimate=1 / interlaced=0 / bluray_compat=0 / constrained_intra=0 / bframes=9 / b_pyramid=2 / b_adapt=2 / b_bias=0 / direct=3 / weightb=1 / open_gop=0 / weightp=2 / keyint=240 / keyint_min=23 / scenecut=40 / intra_refresh=0 / rc_lookahead=40 / rc=2pass / mbtree=1 / bitrate=2015 / ratetol=1.0 / qcomp=0.70 / qpmin=0 / qpmax=69 / qpstep=4 / cplxblur=20.0 / qblur=0.5 / vbv_maxrate=62500 / vbv_bufsize=78125 / nal_hrd=none / filler=0 / ip_ratio=1.40 / aq=2:1.00
    Default : Да
    Forced : Нет
    Statistics Tags Issue : mkvmerge v8.5.2 ('Crosses') 32bit 2016-05-22 14:44:34 / mkvmerge v7.6.0 ('Garden of Dreams') 32bit built on Feb 11 2015 00:18:47 2016-05-22 15:04:17
    FromStats_BitRate : 2014918
    FromStats_Duration : 01:47:50.756000000
    FromStats_FrameCount : 155143
    FromStats_StreamSize : 1629755602
    Аудио #1
    Идентификатор : 2
    Формат : AC-3
    Формат/Информация : Audio Coding 3
    Расширение режима : CM (complete main)
    Параметр Endianness формата : Big
    Идентификатор кодека : A_AC3
    Продолжительность : 1 ч. 47 м.
    Вид битрейта : Постоянный
    Битрейт : 384 Кбит/сек
    Каналы : 6 каналов
    Расположение каналов : Front: L C R, Side: L R, LFE
    Частота : 48,0 КГц
    Частота кадров : 31,250 кадров/сек (1536 spf)
    Метод сжатия : С потерями
    Размер потока : 296 Мбайт (14%)
    Заголовок : любительский
    Язык : Russian
    Default : Да
    Forced : Нет
    Аудио #2
    Идентификатор : 3
    Формат : AC-3
    Формат/Информация : Audio Coding 3
    Расширение режима : CM (complete main)
    Параметр Endianness формата : Big
    Идентификатор кодека : A_AC3
    Продолжительность : 1 ч. 47 м.
    Вид битрейта : Постоянный
    Битрейт : 384 Кбит/сек
    Каналы : 6 каналов
    Расположение каналов : Front: L C R, Side: L R, LFE
    Частота : 48,0 КГц
    Частота кадров : 31,250 кадров/сек (1536 spf)
    Метод сжатия : С потерями
    Размер потока : 296 Мбайт (14%)
    Заголовок : оригинал
    Язык : English
    Default : Нет
    Forced : Нет
    Меню
    00:00:00.000 : en:Chapter 1
    00:08:06.000 : en:Chapter 2
    00:18:55.000 : en:Chapter 3
    00:30:35.000 : en:Chapter 4
    00:41:29.000 : en:Chapter 5
    00:50:31.000 : en:Chapter 6
    01:00:44.000 : en:Chapter 7
    01:11:23.000 : en:Chapter 8
    01:22:27.000 : en:Chapter 9
    01:32:25.000 : en:Chapter 10
    01:42:31.000 : en:Chapter 11

    Скриншот c названием фильма

    Скриншоты

    Скачать .torrent

    Скачать торрент-файл бесплатно и на максимальной скорости!

    Как скачивать? · Что такое торрент? · Рейтинг и ограничения

    !ВНИМАНИЕ!
    Сайт не распространяет и не хранит электронные версии произведений, а занимается лишь лишь предоставлением доступа к создаваемому пользователями каталогу ссылок на торрент-файлы, которые содержат только списки хеш-сумм, убедительная просьба с жалобами обращаться напрямую к пользователю. Файлы для обмена на трекере предоставлены пользователями сайта, и администрация не несёт ответственности за их содержание. Просьба не заливать файлы, защищенные авторскими правами, а также файлы нелегального содержания!


    _________________
    [Профиль] [ЛС]
    Показать сообщения:    
    Ответить на тему

    Текущее время: Сегодня, в 00:12

    Часовой пояс: GMT + 2



    Вы не можете начинать темы
    Вы не можете отвечать на сообщения
    Вы не можете редактировать свои сообщения
    Вы не можете удалять свои сообщения
    Вы не можете голосовать в опросах
    Вы не можете прикреплять файлы к сообщениям
    Вы не можете скачивать файлы