BitTorrentTracker PerecTracker.org
BitTorrentTracker PerecTracker.org
    
Регистрация  ·  Вход
 
 · 
Забыли пароль?

  • Обряд / The Rite (Микаэль Хофстрём / Mikael Hafstrom) [2011 г., США, мистика, ужасы, триллер, драма, HDRip-AVC] MVO + Original (Eng) + Sub (Rus, Eng)

    Ответить на тему
     
    Автор Сообщение

    Light

    Создавать темы 23-Май-2016 04:18

           

    [Цитировать]

    -Обряд / The Rite--Год выпуска: 2011Страна: СШАЖанр: мистика, ужасы, триллер, драма-Продолжительность: 01:53:42Перевод: Профессиональный (многоголосый закадровый)Субтитры: русские (полные - 2 вида), английские (форсированные, полные)Оригинальная аудиодорожка: английская--Режиссер:Микаэль Хофстрём / Mikael Hafstrom-В ролях:Энтони Хопкинс, Колин О’Донохью, Алиси Брага, Киаран Хиндс, Тоби Джонс, Рутгер Хауэр, Марта Гастини, Мария Грация Кучинотта, Арианна Веронези, Андре Каллиджари-Описание:
    Студент духовной семинарии отправляется в Ватикан учиться экзорцизму. При этом он сомневается как в этой противоречивой практике, так и в религии как таковой. Лишь когда он становится учеником легендарного отца Лукаса, который проводил обряд изгнания дьявола тысячи раз, его скептицизм начинает таять. И вот, когда очередное дело об одержимости дьяволом оказывается не по силам самому отцу Лукасу, молодой семинарист сталкивается лицом к лицу с феноменом, который наука неспособна ни объяснить, ни контролировать. Чтобы выжить в противостоянии с ужасающим злом, ему предстоит понять: во что он действительно верит?
    --Дополнительная информация:-
    -Сэмпл Рип НЕ совместим с бытовыми DVD-проигрывателями.--Качество видео: HDRip-AVC (Исходник: BDRip 1080p)
    Формат видео: MKV
    Видео: AVC (x264), 1056x440 (2.4:1), 23.976 fps, ~1200 kbps avg, 0.108 bit/pixel
    Аудио №1: 48 kHz, AC3 Dolby Digital, 2/0 (L,R) ch, 192.00 kbps avg (MVO)
    Аудио №2: 48 kHz, AC3 Dolby Digital, 3/2 (L,C,R,l,r) + LFE ch, 448 kbps (Оригинал)
    Главы: есть-

    Скриншоты





    MediaInfo/log

    log

    x264 [info]: frame I:1234 Avg QP:13.60 size: 54162
    x264 [info]: frame P:31254 Avg QP:17.13 size: 15149
    x264 [info]: frame B:131083 Avg QP:18.66 size: 3684
    x264 [info]: consecutive B-frames: 1.1% 1.2% 4.5% 15.3% 15.3% 45.7% 12.0% 2.0% 1.2% 0.4% 0.2% 0.1% 0.2% 0.1% 0.1% 0.1% 0.7%
    x264 [info]: mb I I16..4: 12.9% 71.8% 15.4%
    x264 [info]: mb P I16..4: 0.9% 5.8% 0.7% P16..4: 33.1% 40.3% 11.9% 0.0% 0.0% skip: 7.4%
    x264 [info]: mb B I16..4: 0.1% 0.3% 0.0% B16..8: 35.1% 16.5% 2.1% direct: 2.4% skip:43.5% L0:45.0% L1:48.3% BI: 6.6%
    x264 [info]: 8x8 transform intra:75.5% inter:54.9%
    x264 [info]: direct mvs spatial:98.0% temporal:2.0%
    x264 [info]: coded y,uvDC,uvAC intra: 82.3% 72.5% 56.7% inter: 12.2% 10.4% 5.2%
    x264 [info]: i16 v,h,dc,p: 38% 13% 15% 33%
    x264 [info]: i8 v,h,dc,ddl,ddr,vr,hd,vl,hu: 13% 7% 14% 9% 11% 12% 11% 11% 12%
    x264 [info]: i4 v,h,dc,ddl,ddr,vr,hd,vl,hu: 15% 7% 11% 9% 13% 12% 11% 10% 11%
    x264 [info]: i8c dc,h,v,p: 43% 28% 18% 11%
    x264 [info]: Weighted P-Frames: Y:3.7% UV:1.4%
    x264 [info]: ref P L0: 49.3% 7.4% 16.0% 8.0% 6.1% 4.8% 4.3% 2.3% 1.7% 0.1% 0.0%
    x264 [info]: ref B L0: 66.9% 15.9% 7.3% 3.9% 2.7% 2.0% 1.0% 0.3%
    x264 [info]: ref B L1: 91.5% 8.5%
    x264 [info]: kb/s:1199.87
    General
    Unique ID : 249307477975536309756357466175641706230 (0xBB8EDFAC10FE94A28D62EE7FBCC75EF6)
    Complete name : \Obryad_(2011).HDRip-AVC.ac3.Dub.Eng.Sub_[All.Films][RG].mkv
    Format : Matroska
    Format version : Version 2
    File size : 1.46 GiB
    Duration : 2h 6mn
    Overall bit rate : 1 658 Kbps
    Movie name : Обряд / The Rite (2011) HDRip-AVC | <VIRUS> [All.Films][RG][perectracker.org]
    Encoded date : UTC 2016-05-22 14:30:49
    Writing application : mkvmerge v7.8.0 ('River Man') 32bit built on Apr 3 2015 12:11:22
    Writing library : libebml v1.3.1 + libmatroska v1.4.2
    Video
    ID : 1
    Format : AVC
    Format/Info : Advanced Video Codec
    Format profile : High@L4.1
    Format settings, CABAC : Yes
    Format settings, ReFrames : 9 frames
    Codec ID : V_MPEG4/ISO/AVC
    Duration : 2h 6mn
    Bit rate : 985 Kbps
    Nominal bit rate : 1 200 Kbps
    Width : 1 056 pixels
    Height : 440 pixels
    Display aspect ratio : 2.40:1
    Frame rate mode : Constant
    Frame rate : 23.976 fps
    Color space : YUV
    Chroma subsampling : 4:2:0
    Bit depth : 8 bits
    Scan type : Progressive
    Bits/(Pixel*Frame) : 0.088
    Stream size : 890 MiB (59%)
    Writing library : x264 core 148 r2638kMod 7599210
    Encoding settings : cabac=1 / ref=9 / deblock=1:-2:-2 / analyse=0x3:0x113 / me=umh / subme=11 / psy=1 / fade_compensate=0.00 / psy_rd=1.00:0.10 / mixed_ref=1 / me_range=42 / chroma_me=1 / trellis=2 / 8x8dct=1 / cqm=0 / deadzone=21,11 / fast_pskip=0 / chroma_qp_offset=-3 / threads=6 / lookahead_threads=1 / sliced_threads=0 / nr=0 / decimate=0 / interlaced=0 / bluray_compat=0 / constrained_intra=0 / fgo=0 / bframes=16 / b_pyramid=2 / b_adapt=2 / b_bias=0 / direct=3 / weightb=1 / open_gop=0 / weightp=2 / keyint=240 / keyint_min=23 / scenecut=40 / intra_refresh=0 / rc_lookahead=60 / rc=2pass / mbtree=0 / bitrate=1200 / ratetol=1.0 / qcomp=0.60 / qpmin=0 / qpmax=69 / qpstep=4 / cplxblur=20.0 / qblur=0.5 / vbv_maxrate=50000 / vbv_bufsize=62500 / nal_hrd=none / filler=0 / ip_ratio=1.40 / pb_ratio=1.30 / aq=3:1.00 / zones=157800,163571,q=35
    Default : Yes
    Forced : No
    Audio #1
    ID : 2
    Format : AC-3
    Format/Info : Audio Coding 3
    Mode extension : CM (complete main)
    Format settings, Endianness : Big
    Codec ID : A_AC3
    Duration : 2h 6mn
    Bit rate mode : Constant
    Bit rate : 192 Kbps
    Channel(s) : 2 channels
    Channel positions : Front: L R
    Sampling rate : 48.0 KHz
    Compression mode : Lossy
    Stream size : 174 MiB (12%)
    Title : MVO
    Language : Russian
    Default : Yes
    Forced : No
    Audio #2
    ID : 3
    Format : AC-3
    Format/Info : Audio Coding 3
    Mode extension : CM (complete main)
    Format settings, Endianness : Big
    Codec ID : A_AC3
    Duration : 2h 6mn
    Bit rate mode : Constant
    Bit rate : 448 Kbps
    Channel(s) : 6 channels
    Channel positions : Front: L C R, Side: L R, LFE
    Sampling rate : 48.0 KHz
    Compression mode : Lossy
    Stream size : 405 MiB (27%)
    Title : Оригинал
    Language : English
    Default : No
    Forced : No
    Text #1
    ID : 4
    Format : UTF-8
    Codec ID : S_TEXT/UTF8
    Codec ID/Info : UTF-8 Plain Text
    Title : Full
    Language : Russian
    Default : No
    Forced : No
    Text #2
    ID : 5
    Format : UTF-8
    Codec ID : S_TEXT/UTF8
    Codec ID/Info : UTF-8 Plain Text
    Title : Full
    Language : Russian
    Default : No
    Forced : No
    Text #3
    ID : 6
    Format : UTF-8
    Codec ID : S_TEXT/UTF8
    Codec ID/Info : UTF-8 Plain Text
    Title : Forced
    Language : English
    Default : No
    Forced : No
    Text #4
    ID : 7
    Format : UTF-8
    Codec ID : S_TEXT/UTF8
    Codec ID/Info : UTF-8 Plain Text
    Title : Full
    Language : English
    Default : No
    Forced : No
    Menu
    00:00:00.000 : en:00:00:00.000
    00:10:14.197 : en:00:10:14.197
    00:18:23.686 : en:00:18:23.686
    00:29:16.546 : en:00:29:16.546
    00:40:35.433 : en:00:40:35.433
    00:50:16.013 : en:00:50:16.013
    01:01:11.376 : en:01:01:11.376
    01:11:14.270 : en:01:11:14.270
    01:20:51.555 : en:01:20:51.555
    01:27:14.896 : en:01:27:14.896
    01:37:09.741 : en:01:37:09.741
    01:49:43.202 : en:01:49:43.202
    FAQ по просмотру MKV/h.264/AAC
    Скачать .torrent

    Скачать торрент-файл бесплатно и на максимальной скорости!

    Как скачивать? · Что такое торрент? · Рейтинг и ограничения

    !ВНИМАНИЕ!
    Сайт не распространяет и не хранит электронные версии произведений, а занимается лишь лишь предоставлением доступа к создаваемому пользователями каталогу ссылок на торрент-файлы, которые содержат только списки хеш-сумм, убедительная просьба с жалобами обращаться напрямую к пользователю. Файлы для обмена на трекере предоставлены пользователями сайта, и администрация не несёт ответственности за их содержание. Просьба не заливать файлы, защищенные авторскими правами, а также файлы нелегального содержания!


    _________________
    [Профиль] [ЛС]
    Показать сообщения:    
    Ответить на тему

    Текущее время: Сегодня, в 09:59

    Часовой пояс: GMT + 2



    Вы не можете начинать темы
    Вы не можете отвечать на сообщения
    Вы не можете редактировать свои сообщения
    Вы не можете удалять свои сообщения
    Вы не можете голосовать в опросах
    Вы не можете прикреплять файлы к сообщениям
    Вы не можете скачивать файлы