BitTorrentTracker PerecTracker.org
BitTorrentTracker PerecTracker.org
    
Регистрация  ·  Вход
 
 · 
Забыли пароль?

  • Возраст любви (Андрей Селиванов) [2015, Мелодрама, HDTVRip]

    Ответить на тему
     
    Автор Сообщение

    Flirldrerve

    Создавать темы 23-Май-2016 00:16

           

    [Цитировать]

    Возраст любви-Жанр: Мелодрама
    Год выпуска: 2015
    Продолжительность: 01:31:01
    Режиссёр: Андрей Селиванов
    В ролях: Наталья Терехова, Сергей Мухин, Маргарита Дьяченкова, Александр Макогон, Данила Якушев, Галина Шевякова, Нино Кантария, Иван Шмаков, Валерия Минина, Андрей Рогожин, Елена Сударева
    Описание: Живут люди, живут и не подозревают о существовании своей истинной любви, своей второй половины. Вот и Игорь с Ольгой тоже об этом не знали, до поры, до времени... Жили себе каждый своей рутинной повседневностью, состояли в браке, воспитывали детей и не о чем с возрастом не мечтали. Однако, есть, что-то необъяснимое, какие-то силы свыше, играющие жизнями в рулетку проведений. Их сводит случай в санатории, где каждый из них хотел обрести покой от суеты повседневной реальности. Эта встреча будто открывает им глаза на новый мир счастья пробуждая забытые, а может и неизведанные чувства словно это происходит не с ними и в их жизни. Но эти несколько дней, как мгновенья пролетают возвращая их к тому от чего ушли и каждый возвращается домой. Но время вспять повернуть нельзя, как нельзя забыть и эту встречу. Но не все так просто разрушить и начать заново…--Релиз от:
    Качество видео: HDTVRip
    Формат видео: AVI
    Видео: 720x400 (16:9), 25.000 fps, XviD 73, 1950 Kbps, 0.27 bit/pixel
    Аудио: 48.0 kHz, AC3 Dolby Digital, 2 ch, 192 Kbps

    MediaInfo

    General
    Complete name : Downloads\Vozrast.liubvy.2015.HDTVRip.Files-x.avi
    Format : AVI
    Format/Info : Audio Video Interleave
    File size : 1.37 GiB
    Duration : 1h 31mn
    Overall bit rate : 2 152 Kbps
    Writing application : VirtualDubMod 1.5.10.3 | www.virtualdub-fr.org || (build 2550/release)
    Writing library : VirtualDubMod build 2550/release
    Video #0
    ID : 0
    Format : MPEG-4 Visual
    Format profile : Advanced Simple@L5
    Format settings, BVOP : 1
    Format settings, QPel : No
    Format settings, GMC : No warppoints
    Format settings, Matrix : Custom
    Codec ID : XVID
    Codec ID/Hint : XviD
    Duration : 1h 31mn
    Bit rate : 1 950 Kbps
    Width : 720 pixels
    Height : 400 pixels
    Display aspect ratio : 16:9
    Frame rate : 25.000 fps
    Color space : YUV
    Chroma subsampling : 4:2:0
    Bit depth : 8 bits
    Scan type : Progressive
    Compression mode : Lossy
    Bits/(Pixel*Frame) : 0.271
    Stream size : 1.24 GiB (91%)
    Writing library : XviD 73
    Audio #1
    ID : 1
    Format : AC-3
    Format/Info : Audio Coding 3
    Mode extension : CM (complete main)
    Format settings, Endianness : Big
    Codec ID : 2000
    Duration : 1h 31mn
    Bit rate mode : Constant
    Bit rate : 192 Kbps
    Channel(s) : 2 channels
    Channel positions : Front: L R
    Sampling rate : 48.0 KHz
    Bit depth : 16 bits
    Compression mode : Lossy
    Stream size : 125 MiB (9%)
    Alignment : Split accross interleaves
    Interleave, duration : 40 ms (1.00 video frame)
    Interleave, preload duration : 500 ms

    Скриншот c названием фильма

    Скриншоты

    Скачать .torrent

    Скачать торрент-файл бесплатно и на максимальной скорости!

    Как скачивать? · Что такое торрент? · Рейтинг и ограничения

    !ВНИМАНИЕ!
    Сайт не распространяет и не хранит электронные версии произведений, а занимается лишь лишь предоставлением доступа к создаваемому пользователями каталогу ссылок на торрент-файлы, которые содержат только списки хеш-сумм, убедительная просьба с жалобами обращаться напрямую к пользователю. Файлы для обмена на трекере предоставлены пользователями сайта, и администрация не несёт ответственности за их содержание. Просьба не заливать файлы, защищенные авторскими правами, а также файлы нелегального содержания!


    _________________
    [Профиль] [ЛС]
    Показать сообщения:    
    Ответить на тему

    Текущее время: Сегодня, в 23:50

    Часовой пояс: GMT + 2



    Вы не можете начинать темы
    Вы не можете отвечать на сообщения
    Вы не можете редактировать свои сообщения
    Вы не можете удалять свои сообщения
    Вы не можете голосовать в опросах
    Вы не можете прикреплять файлы к сообщениям
    Вы не можете скачивать файлы