BitTorrentTracker PerecTracker.org
BitTorrentTracker PerecTracker.org
    
Регистрация  ·  Вход
 
 · 
Забыли пароль?

  • Боги Египта / Gods of Egypt (Алекс Пройас / Alex Proyas) [2016, США, фэнтези, боевик, приключения, BDRip 720p] Dub + Sub Rus, Eng + Original Eng

    Ответить на тему
     
    Автор Сообщение

    Light

    Создавать темы 23-Май-2016 00:16

           

    [Цитировать]

    Боги Египта / Gods of Egypt
    Страна: США
    Студия: Mystery Clock Cinema
    Жанр: фэнтези, боевик, приключения
    Год выпуска: 2016
    Продолжительность: 02:07:02
    Перевод: Профессиональный (дублированный) Централ Партнершип
    Cубтитры: Rus, Eng
    Оригинальная аудиодорожка: английский
    Режиссер: Алекс Пройас / Alex Proyas
    В ролях: Брентон Туэйтс, Джерард Батлер, Николай Костер-Вальдау, Чедвик Боузман, Элоди Юнг, Кортни Итон, Руфус Сьюэлл, Джеффри Раш, Брайан Браун, Рэйчел Блейк
    Описание: Некогда мирное и процветающее египетское царство погружается в хаос: беспощадный бог тьмы Сет убивает своего брата Осириса и узурпирует трон. Вызов ему неожиданно бросает простой смертный, находчивый молодой вор. Чтобы вернуть к жизни свою прекрасную возлюбленную, ему приходится заручиться поддержкой могущественного и мстительного бога Гора. Лишь выдержав испытание на прочность и принеся в жертву все самое дорогое, им удастся противостоять Сету и его приспешникам в мире живых и мире мертвых.

    Тип релиза: BDRip 720p
    Контейнер: MKV
    Видео: MPEG-4 AVC, 5000 Кбит/с, 1280x534, 23,976 fps
    Аудио: Rus, AC3, 640 kb/s (6 ch), 48 kHz
    Аудио 2: Eng, AC3, 640 kb/s (6 ch), 48 kHz
    Формат субтитров: softsub (SRT)

    MediaInfo

    x264 [info]: frame I:1887 Avg QP:15.34 size:113639
    x264 [info]: frame P:48034 Avg QP:17.27 size: 44387
    x264 [info]: frame B:132840 Avg QP:18.17 size: 18196
    Format : Matroska
    Format version : Version 4 / Version 2
    File size : 5.57 GiB
    Duration : 2h 7mn
    Overall bit rate : 6 282 Kbps
    Movie name : Боги Египта. (Tonik)
    Encoded date : UTC 2016-05-21 01:40:46
    Writing application : mkvmerge v7.1.0 ('Good Love') 64bit built on Jul 27 2014 13:06:55
    Writing library : libebml v1.3.0 + libmatroska v1.4.1
    _STATISTICS_WRITING_APP : mkvmerge v7.1.0 ('Good Love') 64bit built on Jul 27 2014 13:06:55
    _STATISTICS_WRITING_DATE_UTC : 2016-05-21 01:40:46
    _STATISTICS_TAGS : BPS DURATION NUMBER_OF_FRAMES NUMBER_OF_BYTES
    DURATION : 02:07:02.624000000
    NUMBER_OF_FRAMES : 238207
    NUMBER_OF_BYTES : 609809920
    Video
    ID : 1
    Format : AVC
    Format/Info : Advanced Video Codec
    Format profile : High@L4.1
    Format settings, CABAC : Yes
    Format settings, ReFrames : 12 frames
    Codec ID : V_MPEG4/ISO/AVC
    Bit rate : 5 000 Kbps
    Width : 1 280 pixels
    Height : 534 pixels
    Display aspect ratio : 2.40:1
    Frame rate mode : Variable
    Original frame rate : 23.976 fps
    Color space : YUV
    Chroma subsampling : 4:2:0
    Bit depth : 8 bits
    Scan type : Progressive
    Bits/(Pixel*Frame) : 0.305
    Writing library : x264 core 148 r2665kMod a01e339
    Encoding settings : cabac=1 / ref=12 / deblock=1:-3:-3 / analyse=0x3:0x133 / me=umh / subme=11 / psy=1 / fade_compensate=0.00 / psy_rd=1.05:0.00 / mixed_ref=1 / me_range=32 / chroma_me=1 / trellis=2 / 8x8dct=1 / cqm=0 / deadzone=21,11 / fast_pskip=0 / chroma_qp_offset=-2 / threads=17 / lookahead_threads=2 / sliced_threads=0 / nr=0 / decimate=0 / interlaced=0 / bluray_compat=0 / constrained_intra=0 / fgo=0 / bframes=8 / b_pyramid=2 / b_adapt=2 / b_bias=0 / direct=3 / weightb=1 / open_gop=0 / weightp=2 / keyint=240 / keyint_min=24 / scenecut=40 / intra_refresh=0 / rc=2pass / mbtree=0 / bitrate=5000 / ratetol=1.0 / qcomp=0.70 / qpmin=0 / qpmax=69 / qpstep=4 / cplxblur=20.0 / qblur=0.5 / ip_ratio=1.20 / pb_ratio=1.20 / aq=3:0.85
    Language : English
    Default : Yes
    Forced : No
    _STATISTICS_WRITING_APP : mkvmerge v7.1.0 ('Good Love') 64bit built on Jul 27 2014 13:06:55
    _STATISTICS_WRITING_DATE_UTC : 2016-05-21 01:40:46
    _STATISTICS_TAGS : BPS DURATION NUMBER_OF_FRAMES NUMBER_OF_BYTES
    DURATION : 02:07:02.657000000
    NUMBER_OF_FRAMES : 182761
    NUMBER_OF_BYTES : 4763643059
    Audio #1
    ID : 2
    Format : AC-3
    Format/Info : Audio Coding 3
    Mode extension : CM (complete main)
    Format settings, Endianness : Big
    Codec ID : A_AC3
    Duration : 2h 7mn
    Bit rate mode : Constant
    Bit rate : 640 Kbps
    Channel(s) : 6 channels
    Channel positions : Front: L C R, Side: L R, LFE
    Sampling rate : 48.0 KHz
    Bit depth : 16 bits
    Compression mode : Lossy
    Stream size : 582 MiB (10%)
    Language : Russian
    Default : Yes
    Forced : No
    Audio #2
    ID : 3
    Format : AC-3
    Format/Info : Audio Coding 3
    Mode extension : CM (complete main)
    Format settings, Endianness : Big
    Codec ID : A_AC3
    Duration : 2h 7mn
    Bit rate mode : Constant
    Bit rate : 640 Kbps
    Channel(s) : 6 channels
    Channel positions : Front: L C R, Side: L R, LFE
    Sampling rate : 48.0 KHz
    Bit depth : 16 bits
    Compression mode : Lossy
    Stream size : 582 MiB (10%)
    Language : English
    Default : No
    Forced : No
    Text #1
    ID : 4
    Format : UTF-8
    Codec ID : S_TEXT/UTF8
    Codec ID/Info : UTF-8 Plain Text
    Language : Russian
    Default : No
    Forced : No
    Text #2
    ID : 5
    Format : UTF-8
    Codec ID : S_TEXT/UTF8
    Codec ID/Info : UTF-8 Plain Text
    Language : English
    Default : No
    Forced : No
    Text #3
    ID : 6
    Format : UTF-8
    Codec ID : S_TEXT/UTF8
    Codec ID/Info : UTF-8 Plain Text
    Title : SDH
    Language : English
    Default : No
    Forced : No
    Menu
    00:00:00.000 : en:1
    00:05:48.000 : en:2
    00:11:38.916 : en:3
    00:17:54.874 : en:4
    00:23:43.540 : en:5
    00:29:26.373 : en:6
    00:35:03.498 : en:7
    00:41:23.039 : en:8
    00:46:25.539 : en:9
    00:53:57.872 : en:10
    00:59:23.080 : en:11
    01:06:10.121 : en:12
    01:13:11.787 : en:13
    01:19:48.662 : en:14
    01:28:10.662 : en:15
    01:36:03.995 : en:16
    01:41:55.536 : en:17
    01:48:43.452 : en:18
    01:54:08.785 : en:19

    Скриншоты

    Перекачайте, замена звука.
    Скачать .torrent

    Скачать торрент-файл бесплатно и на максимальной скорости!

    Как скачивать? · Что такое торрент? · Рейтинг и ограничения

    !ВНИМАНИЕ!
    Сайт не распространяет и не хранит электронные версии произведений, а занимается лишь лишь предоставлением доступа к создаваемому пользователями каталогу ссылок на торрент-файлы, которые содержат только списки хеш-сумм, убедительная просьба с жалобами обращаться напрямую к пользователю. Файлы для обмена на трекере предоставлены пользователями сайта, и администрация не несёт ответственности за их содержание. Просьба не заливать файлы, защищенные авторскими правами, а также файлы нелегального содержания!


    _________________
    [Профиль] [ЛС]
    Показать сообщения:    
    Ответить на тему

    Текущее время: Сегодня, в 08:15

    Часовой пояс: GMT + 2



    Вы не можете начинать темы
    Вы не можете отвечать на сообщения
    Вы не можете редактировать свои сообщения
    Вы не можете удалять свои сообщения
    Вы не можете голосовать в опросах
    Вы не можете прикреплять файлы к сообщениям
    Вы не можете скачивать файлы