BitTorrentTracker PerecTracker.org
BitTorrentTracker PerecTracker.org
    
Регистрация  ·  Вход
 
 · 
Забыли пароль?

  • Человек в красном ботинке / The Man with One Red Shoe (Стэн Драготи / Stan Dragoti) [1985, США, комедия, WEB-DL 720p] MVO + AVO + Sub Rus, Eng + Original Eng

    Ответить на тему
     
    Автор Сообщение

    Light

    Создавать темы 23-Май-2016 00:16

           

    [Цитировать]

    Человек в красном ботинке / The Man with One Red Shoe
    -Страна: США
    Жанр: комедия
    Год выпуска: 1985
    Продолжительность: 01:32:31-Перевод 1: Профессиональный (многоголосый, закадровый) R5, ОРТ
    Перевод 2: Авторский (одноголосый закадровый) Гаврилов
    Cубтитры: русские, английские
    Оригинальная аудиодорожка: английский-Режиссер: Стэн Драготи / Stan Dragoti-В ролях: Том Хэнкс, Дэбни Коулмен, Лори Сингер, Чарльз Дёрнинг, Кэрри Фишер, Эдвард Херрманн, Джеймс Белуши, Ирвинг Мецман, Том Нунен, Геррит Грэм-Описание:
    Фантастическая, нелепая ситуация, в которую попал скрипач-недотепа Ричард Дрю, была бы ужасной, не будь она такой смешной. Переполох начался с шутки друга, который спрятал всю обувь в доме, оставив Ричарду два разноцветных ботинка. И в таком виде скрипач попадается на глаза нечистому на руку агенту ЦРУ. Двойному агенту нужно срочно перевести стрелки и он заявляет, что Ричард - курьер мафии, в результате чего вся шпионская сеть повисает на хвосте у незадачливого музыканта, а мафиози шлют наемников с заданием ликвидировать его. Все вокруг ничего не подозревающего Ричарда стоят на ушах, но что он отмочит в следующий момент - не дано угадать никому!-Сэмпл: Скачать-Тип релиза: WEB-DL 720p
    Контейнер: MKV-Видео: 1 278x720 (16:9); 3 979 Kbps; 23.976 fps; 0.180 bpp
    Аудио 1: Russian; AC3; 48.0 KHz; 6ch; 448 Kbps MVO
    Аудио 2: Russian; AC3; 48.0 KHz; 2ch; 192 Kbps AVO
    Аудио 3: English; AC3; 48.0 KHz; 6ch; 448 Kbps
    Аудио 4: English; AAC; 48.0 KHz; 2ch; ~160 Kbps

    MediaInfo

    Format : Matroska
    Format version : Version 4 / Version 2
    File size : 3.43 GiB
    Duration : 1h 32mn
    Overall bit rate : 5 300 Kbps
    Encoded date : UTC 2016-05-19 07:53:15
    Writing application : mkvmerge v8.3.0 ('Over the Horizon') 64bit
    Writing library : libebml v1.3.1 + libmatroska v1.4.2
    Attachements : poster.jpg
    DURATION : 01:32:30.591000000
    NUMBER_OF_FRAMES : 260184
    NUMBER_OF_BYTES : 89982382
    _STATISTICS_WRITING_APP : mkvmerge v8.3.0 ('Over the Horizon') 64bit
    _STATISTICS_WRITING_DATE_UT : 2016-05-19 07:53:15
    _STATISTICS_TAGS : BPS DURATION NUMBER_OF_FRAMES NUMBER_OF_BYTES
    Video
    ID : 1
    Format : AVC
    Format/Info : Advanced Video Codec
    Format profile : High@L3.1
    Format settings, CABAC : No
    Format settings, ReFrames : 2 frames
    Codec ID : V_MPEG4/ISO/AVC
    Duration : 1h 32mn
    Width : 1 278 pixels
    Height : 720 pixels
    Display aspect ratio : 16:9
    Frame rate mode : Constant
    Frame rate : 23.976 fps
    Color space : YUV
    Chroma subsampling : 4:2:0
    Bit depth : 8 bits
    Scan type : Progressive
    Language : English
    Default : Yes
    Forced : No
    Color range : Limited
    Color primaries : BT.709
    Transfer characteristics : BT.709
    Matrix coefficients : BT.709
    Audio #1
    ID : 2
    Format : AC-3
    Format/Info : Audio Coding 3
    Mode extension : CM (complete main)
    Format settings, Endianness : Big
    Codec ID : A_AC3
    Duration : 1h 32mn
    Bit rate mode : Constant
    Bit rate : 448 Kbps
    Channel(s) : 6 channels
    Channel positions : Front: L C R, Side: L R, LFE
    Sampling rate : 48.0 KHz
    Compression mode : Lossy
    Stream size : 297 MiB (8%)
    Title : MVO R5, ОРТ
    Language : Russian
    Default : Yes
    Forced : No
    Audio #2
    ID : 3
    Format : AC-3
    Format/Info : Audio Coding 3
    Mode extension : CM (complete main)
    Format settings, Endianness : Big
    Codec ID : A_AC3
    Duration : 1h 32mn
    Bit rate mode : Constant
    Bit rate : 192 Kbps
    Channel(s) : 2 channels
    Channel positions : Front: L R
    Sampling rate : 48.0 KHz
    Compression mode : Lossy
    Stream size : 127 MiB (4%)
    Title : AVO Гаврилов
    Language : Russian
    Default : No
    Forced : No
    Audio #3
    ID : 4
    Format : AC-3
    Format/Info : Audio Coding 3
    Mode extension : CM (complete main)
    Format settings, Endianness : Big
    Codec ID : A_AC3
    Duration : 1h 32mn
    Bit rate mode : Constant
    Bit rate : 448 Kbps
    Channel(s) : 6 channels
    Channel positions : Front: L C R, Side: L R, LFE
    Sampling rate : 48.0 KHz
    Compression mode : Lossy
    Stream size : 297 MiB (8%)
    Language : English
    Default : No
    Forced : No
    Audio #4
    ID : 5
    Format : AAC
    Format/Info : Advanced Audio Codec
    Format profile : LC
    Codec ID : A_AAC
    Duration : 1h 32mn
    Channel(s) : 2 channels
    Channel positions : Front: L R
    Sampling rate : 48.0 KHz
    Compression mode : Lossy
    Language : English
    Default : No
    Forced : No
    Text #1
    ID : 6
    Format : UTF-8
    Codec ID : S_TEXT/UTF8
    Codec ID/Info : UTF-8 Plain Text
    Language : Russian
    Default : No
    Forced : No
    Text #2
    ID : 7
    Format : UTF-8
    Codec ID : S_TEXT/UTF8
    Codec ID/Info : UTF-8 Plain Text
    Language : English
    Default : No
    Forced : No
    Menu
    00:00:00.000 : en:Main Titles
    00:00:50.000 : en:Spies
    00:04:48.000 : en:The C.I.A.
    00:07:45.000 : en:Bugs
    00:10:59.000 : en:A Decoy
    00:15:42.000 : en:Richard
    00:24:14.000 : en:At the Dentist's
    00:27:54.000 : en:Coming Home
    00:30:35.000 : en:All About Richard
    00:36:27.000 : en:Paula
    00:41:07.000 : en:A Ball Game
    00:43:28.000 : en:The Jealous Husband
    00:48:59.000 : en:The Scam
    00:52:59.000 : en:At the Symphony
    00:57:50.000 : en:Visiting Maddy
    01:04:46.000 : en:Maddy's Song
    01:07:01.000 : en:Protecting the Innocent
    01:11:07.000 : en:An Attack
    01:13:03.000 : en:An Abduction
    01:23:03.000 : en:A Confession
    01:25:54.000 : en:A Happy Ending
    01:28:16.000 : en:End Titles

    Скриншоты

    Скачать .torrent

    Скачать торрент-файл бесплатно и на максимальной скорости!

    Как скачивать? · Что такое торрент? · Рейтинг и ограничения

    !ВНИМАНИЕ!
    Сайт не распространяет и не хранит электронные версии произведений, а занимается лишь лишь предоставлением доступа к создаваемому пользователями каталогу ссылок на торрент-файлы, которые содержат только списки хеш-сумм, убедительная просьба с жалобами обращаться напрямую к пользователю. Файлы для обмена на трекере предоставлены пользователями сайта, и администрация не несёт ответственности за их содержание. Просьба не заливать файлы, защищенные авторскими правами, а также файлы нелегального содержания!


    _________________
    [Профиль] [ЛС]
    Показать сообщения:    
    Ответить на тему

    Текущее время: Сегодня, в 08:17

    Часовой пояс: GMT + 2



    Вы не можете начинать темы
    Вы не можете отвечать на сообщения
    Вы не можете редактировать свои сообщения
    Вы не можете удалять свои сообщения
    Вы не можете голосовать в опросах
    Вы не можете прикреплять файлы к сообщениям
    Вы не можете скачивать файлы