BitTorrentTracker PerecTracker.org
BitTorrentTracker PerecTracker.org
    
Регистрация  ·  Вход
 
 · 
Забыли пароль?

  • Мы вернулись! История динозавра / We\'re Back! A Dinosaur\'s Story (Фил Ниббелинк / Phil Nibbelink, Саймон Уэллс / Simon Wells) [1993, США, мультфильм, фэнтези, приключения, семейный, BDRip] MVO (EUR/СТС) + AVO (Дохалов) + Original Eng + subs (Rus, E

    Ответить на тему
     
    Автор Сообщение

    Flirldrerve

    Создавать темы 22-Май-2016 11:50

           

    [Цитировать]

    Мы вернулись! История динозавра / We're Back! A Dinosaur's Story-Год выпуска: 1993
    Страна: США
    Жанр: мультфильм, фэнтези, приключения, семейный
    Продолжительность: 01:10:52
    Перевод: Профессиональный (многоголосый, закадровый) EUR/СТС
    + Авторский одноголосый В.Дохалов (отдельно)
    Оригинальная звуковая дорожка: English
    Субтитры: Русские, Английские (полные, SDH, SDH Colored) (внешние srt*) (спасибо Elheym)-Режиссер: Фил Ниббелинк / Phil Nibbelink, Саймон Уэллс / Simon Wells
    Роли озвучивали: Джон Гудман, Блэйз Бердаль, Ри Перлман, Джей Лено, Рене Ле Вант, Фелисити Кендал, Чарльз Флайшер, Уолтер Кронкит, Ларри Кинг, Джулия Чайлд, Мартин Шорт
    О фильме: Добрый профессор с говорящим именем Благовзгляд отправился во времена динозавров на своём чудесном дирижабле, способном перемещаться во времени. Поймав четырёх злобных динозавров, профессор накормил их специальным препаратом, превратившим монстров в говорящих весельчаков. После этого Благовзгляд дал динозаврам послушать своё Радио Желаний, в котором можно было услышать мечты детей, ради которых, собственно, учёный и отловил доисторических животных.
    К сожалению, из-за временных неполадок в системе корабля все четыре гостя из прошлого были катапультированы прямо на голову мальчишке Луи, занимавшемуся сёрфингом. Он отнёсся к появлению «монстров» как к обычному явлению — впрочем, только он. Дабы не напугать горожан, пришельцы притворились роботами. И всё бы ничего, если бы их не разоблачила маленькая девочка, а Луи вместе со своей новой знакомой не оказался в плену у злобного братца Благовзгляда — инфернального Дурноглаза, устроившего цирк страшилищ…-Релиз:
    Автор: yaroslaigor
    Качество: BDRip (источник: / Blu-Ray EUR / 1080р)
    Формат: AVI
    Видео: 704x384 (1.83:1), 23.976 fps, XviD build 65 ~2287 kbps avg, 0.35 bit/pixel
    Аудио #1: 48 kHz, AC3 Dolby Digital, 2/0 (L,R), ~192.00 kbps avg rus mvo
    Аудио #2: 48 kHz, AC3 Dolby Digital, 3/2 (L,C,R,l,r) + LFE ch, ~448.00 kbps avg eng
    Аудио #3: 48 kHz, AC3 Dolby Digital, 3/2 (L,C,R,l,r) + LFE ch, ~448.00 kbps avg avo (отдельно)
    Размер: 1491.81 Mb (1/3 DVD-R)
    Скачать: Семпл-

    Кадры из фильма


    -

    Mi

    Формат : AVI
    Формат/Информация : Audio Video Interleave
    Размер файла : 1,46 Гбайт
    Продолжительность : 1 ч. 10 м.
    Общий поток : 2943 Кбит/сек
    Название фильма : Мы вернулись! История динозавра / We're Back! A Dinosaur's Story (1993) BDRip
    Режиссёр : yaroslaigor
    Жанр : мультфильм, фэнтези
    Программа кодирования : VirtualDubMod 1.5.10.2 (build 2542/release)
    Правообладатель : HQCLUB
    Примечание : 19.05.2016
    Видео
    Идентификатор : 0
    Формат : MPEG-4 Visual
    Профиль формата : Advanced Simple@L5
    Параметр BVOP формата : 1
    Параметр QPel формата : Нет
    Параметр GMC формата : Без точки перехода
    Параметр матрицы формата : Выборочная
    Идентификатор кодека : XVID
    Идентификатор кодека/Подсказка : XviD
    Продолжительность : 1 ч. 10 м.
    Битрейт : 2289 Кбит/сек
    Ширина : 704 пикселя
    Высота : 384 пикселя
    Соотношение сторон : 1,85:1
    Частота кадров : 23,976 кадра/сек
    Цветовое пространство : YUV
    Субдискретизация насыщенности : 4:2:0
    Битовая глубина : 8 бит
    Тип развёртки : Прогрессивная
    Метод сжатия : С потерями
    Бит/(Пиксели*Кадры) : 0.353
    Размер потока : 1,13 Гбайт (78%)
    Библиотека кодирования : XviD 65
    Аудио #1
    Идентификатор : 1
    Формат : AC-3
    Формат/Информация : Audio Coding 3
    Расширение режима : CM (complete main)
    Параметр Endianness формата : Big
    Идентификатор кодека : 2000
    Продолжительность : 1 ч. 10 м.
    Вид битрейта : Постоянный
    Битрейт : 192 Кбит/сек
    Каналы : 2 канала
    Расположение каналов : Front: L R
    Частота : 48,0 КГц
    Битовая глубина : 16 бит
    Метод сжатия : С потерями
    Размер потока : 97,3 Мбайт (7%)
    Выравнивание : Разделение по промежуткам
    Продолжительность промежутка : 42 мс. (1,00 видеокадр)
    Время предзагрузки промежутка : 500 мс.
    Аудио #2
    Идентификатор : 2
    Формат : AC-3
    Формат/Информация : Audio Coding 3
    Расширение режима : CM (complete main)
    Параметр Endianness формата : Big
    Идентификатор кодека : 2000
    Продолжительность : 1 ч. 10 м.
    Вид битрейта : Постоянный
    Битрейт : 448 Кбит/сек
    Каналы : 6 каналов
    Расположение каналов : Front: L C R, Side: L R, LFE
    Частота : 48,0 КГц
    Битовая глубина : 16 бит
    Метод сжатия : С потерями
    Размер потока : 227 Мбайт (15%)
    Выравнивание : Разделение по промежуткам
    Продолжительность промежутка : 42 мс. (1,00 видеокадр)
    Время предзагрузки промежутка : 500 мс.
    -
    Скачать .torrent

    Скачать торрент-файл бесплатно и на максимальной скорости!

    Как скачивать? · Что такое торрент? · Рейтинг и ограничения

    !ВНИМАНИЕ!
    Сайт не распространяет и не хранит электронные версии произведений, а занимается лишь лишь предоставлением доступа к создаваемому пользователями каталогу ссылок на торрент-файлы, которые содержат только списки хеш-сумм, убедительная просьба с жалобами обращаться напрямую к пользователю. Файлы для обмена на трекере предоставлены пользователями сайта, и администрация не несёт ответственности за их содержание. Просьба не заливать файлы, защищенные авторскими правами, а также файлы нелегального содержания!


    _________________
    [Профиль] [ЛС]
    Показать сообщения:    
    Ответить на тему

    Текущее время: Сегодня, в 00:06

    Часовой пояс: GMT + 2



    Вы не можете начинать темы
    Вы не можете отвечать на сообщения
    Вы не можете редактировать свои сообщения
    Вы не можете удалять свои сообщения
    Вы не можете голосовать в опросах
    Вы не можете прикреплять файлы к сообщениям
    Вы не можете скачивать файлы