BitTorrentTracker PerecTracker.org
BitTorrentTracker PerecTracker.org
    
Регистрация  ·  Вход
 
 · 
Забыли пароль?

  • Команда уничтожить / Приказ уничтожить / Kill Command / Identify (Стивен Гомес / Steven Gomez) [2016, Великобритания, Фантастика, ужасы, боевик, BDRip] DVO

    Ответить на тему
     
    Автор Сообщение

    rechyn

    Создавать темы 22-Май-2016 11:50

           

    [Цитировать]

    Команда уничтожить / Приказ уничтожить / Kill Command / Identify
    Страна: Великобритания
    Жанр: Фантастика, ужасы, боевик
    Год выпуска: 2016
    Продолжительность: 01:39:32
    Перевод: Любительский (двухголосый закадровый)
    Cубтитры: отсутствуют
    Оригинальная аудиодорожка: нет
    Режиссёр: Стивен Гомес / Steven Gomez
    В ролях: Ванесса Кирби, Туре Линдхардт, Дэвид Аджала, Том МакКей, Дебора Росан, Бентли Калу, Майк Ноубл, Келли Гаф, Тим Эхерн, Оси Окерафор, и др.
    Описание: Недалёкое будущее. Экспериментальный отряд специальных агентов высаживается на необитаемом острове для прохождения интенсивных боевых учений. Но на острове высадился кто-то ещё. И это – не люди…

    Качество видео: BDRip [Kill.Command.2016.BDREMUX.1080p.ExKinoRay.mkv селезень Кинозал.ТВ]
    Формат видео: AVI
    Video: XviD 67 MPEG-4, 720x304 (2.35:1) 24.000 fps, ~911 kbps avg, 0.173 bit/pixel
    Аudio: MP-3 Joint stereo, CBR 128 kbps 2 ch, 48.0 KHz

    MediaInfo

    ОбщееПолное имя : V:\Kill_Command_2016_BDRip_[perectracker.org].aviФормат : AVIФормат/Информация : Audio Video InterleaveРазмер файла : 747 МбайтПродолжительность : 1 ч. 39 м.Общий поток : 1049 Кбит/секНазвание фильма : Kill_Command_2016_BDRip_[perectracker.org]Режиссёр : OGORODNIKOFFFЖанр : Фантастика, ужасы, боевикПрограмма кодирования : VirtualDubModRus 1.5.10.2 (build 2542/release)Формат оригинала/Имя : Фильмы 2016Правообладатель : [url=profile.php?mode=viewprofile&u=38116300]http://perectracker.org/profile.php?mode=viewprofil...[/url]Примечание : Рип подготовлен 22 мая 2016 года
    ВидеоИдентификатор : 0Формат : MPEG-4 VisualПрофиль формата : Advanced Simple@L5Параметр BVOP формата : 1Параметр QPel формата : НетПараметр GMC формата : Без точки переходаПараметр матрицы формата : Default (MPEG)Идентификатор кодека : DX50Идентификатор кодека/Подсказка : DivX 5Продолжительность : 1 ч. 39 м.Битрейт : 911 Кбит/секШирина : 720 пикселейВысота : 304 пикселяСоотношение сторон : 2,35:1Частота кадров : 24,000 кадра/секЦветовое пространство : YUVСубдискретизация насыщенности : 4:2:0Битовая глубина : 8 битТип развёртки : ПрогрессивнаяМетод сжатия : С потерямиБит/(Пиксели*Кадры) : 0.173Размер потока : 649 Мбайт (87%)Библиотека кодирования : XviD 67
    АудиоИдентификатор : 1Формат : MPEG AudioВерсия формата : Version 1Профиль формата : Layer 3Режим : Joint stereoИдентификатор кодека : 55Идентификатор кодека/Подсказка : MP3Продолжительность : 1 ч. 39 м.Вид битрейта : ПостоянныйБитрейт : 128 Кбит/секКаналы : 2 каналаЧастота : 48,0 КГцМетод сжатия : С потерямиРазмер потока : 91,1 Мбайт (12%)Выравнивание : Соединение по промежуткамПродолжительность промежутка : 42 мс. (1,00 видеокадр)Время предзагрузки промежутка : 504 мс.Библиотека кодирования : LAME3.99

    Скриншот c названием фильма

    Скриншоты

    Время раздачи - по возможности.
    Скачать .torrent

    Скачать торрент-файл бесплатно и на максимальной скорости!

    Как скачивать? · Что такое торрент? · Рейтинг и ограничения

    !ВНИМАНИЕ!
    Сайт не распространяет и не хранит электронные версии произведений, а занимается лишь лишь предоставлением доступа к создаваемому пользователями каталогу ссылок на торрент-файлы, которые содержат только списки хеш-сумм, убедительная просьба с жалобами обращаться напрямую к пользователю. Файлы для обмена на трекере предоставлены пользователями сайта, и администрация не несёт ответственности за их содержание. Просьба не заливать файлы, защищенные авторскими правами, а также файлы нелегального содержания!


    _________________
    [Профиль] [ЛС]
    Показать сообщения:    
    Ответить на тему

    Текущее время: Сегодня, в 20:54

    Часовой пояс: GMT + 2



    Вы не можете начинать темы
    Вы не можете отвечать на сообщения
    Вы не можете редактировать свои сообщения
    Вы не можете удалять свои сообщения
    Вы не можете голосовать в опросах
    Вы не можете прикреплять файлы к сообщениям
    Вы не можете скачивать файлы