BitTorrentTracker PerecTracker.org
BitTorrentTracker PerecTracker.org
    
Регистрация  ·  Вход
 
 · 
Забыли пароль?

  • На грани добра и зла / Borderline (Оливье Маршаль / Olivier Marchal) [2014, триллер, экранизация, DVB] Original (Fre) + Sub (Rus, Eng, Fre, Deu)

    Ответить на тему
     
    Автор Сообщение

    Light

    Создавать темы 22-Май-2016 03:32

           

    [Цитировать]

    На грани добра и зла
    Borderline-Страна: Франция
    Жанр: триллер, экранизация
    Год выпуска: 2014
    Продолжительность: 01:37:51
    Перевод: Субтитры (перевод М.Лабори, Éclair Media)
    Cубтитры: русские, английские, французские, немецкие, нидерландские, румынские
    Оригинальная аудиодорожка: французский
    Режиссер: Оливье Маршаль / Olivier MarchalВ ролях: Брюно Волкович / Bruno Wolkowitch (Willy Blain), Катрин Маршаль / Catherine Marchal (Catherine Van Roy), Патрик Каталифо / Patrick Catalifo (Philippe Jansen), Лор Марзак / Laure Marsac (Camille Blain), Венсан Жуан / Vincent Jouan (Richard Moreau), Жак Перрен / Jacques Perrin (Henri Van Roy), Кристоф Гава / Christophe Gavat (Bruno Agostini)
    Описание: По автобиографическому роману бывшего комиссара полиции Гренобля Кристофа Гавы / Christophe Gavat "96 часов в участке / 96 heures, un commissaire en garde à vue" (2013), после 25 лет безупречной службы арестованного по обвинению в покрытии преступной деятельности по обороту наркотиков. За время содержания под стражей он столкнулся с другой стороной своей профессии.
    Доп. информация: Hot Bird (13.0°E) TV5MONDE Europe DVB-S
    Награды 3 приза Festival de la fiction TV de la Rochelle 2015 (лучший телефильм, лучший актер - Patrick Catalifo, лучшая музыка).

    Качество видео: DVB
    Формат видео: TS
    Видео: MPEG Video 2, 720x576@1024x576 (16:9), 25 fps, ~3245 kbps avg, 0.313 bit/pixel
    Аудио: MPEG Audio 2, 2 ch, 48 kHz, 192 kbps - французский
    Формат субтитров: PGS

    MediaInfo

    GeneralID : 1 (0x1)Complete name : [apreder]Borderline(2014)DVB.tsFormat : MPEG-TSFile size : 2.47 GiBDuration : 1h 37mnOverall bit rate mode : VariableOverall bit rate : 3 618 KbpsMaximum Overall bit rate : 35.5 Mbps
    VideoID : 4113 (0x1011)Menu ID : 1 (0x1)Format : MPEG VideoFormat version : Version 2Format profile : Main@MainFormat settings, BVOP : YesFormat settings, Matrix : CustomFormat settings, GOP : M=4, N=12Format settings, picture structure : FrameCodec ID : 2Duration : 1h 37mnBit rate mode : VariableBit rate : 3 245 KbpsWidth : 720 pixelsHeight : 576 pixelsDisplay aspect ratio : 16:9Frame rate : 25.000 fpsStandard : PALColor space : YUVChroma subsampling : 4:2:0Bit depth : 8 bitsScan type : InterlacedScan order : Top Field FirstCompression mode : LossyBits/(Pixel*Frame) : 0.313Time code of first frame : 00:00:00:00Time code source : Group of pictures headerGOP, Open/Closed : OpenGOP, Open/Closed of first frame : ClosedStream size : 2.22 GiB (90%)
    AudioID : 4352 (0x1100)Menu ID : 1 (0x1)Format : MPEG AudioFormat version : Version 1Format profile : Layer 2Mode : Joint stereoMode extension : Intensity Stereo + MS StereoCodec ID : 4Duration : 1h 37mnBit rate mode : ConstantBit rate : 192 KbpsChannel(s) : 2 channelsSampling rate : 48.0 KHzCompression mode : LossyStream size : 134 MiB (5%)Language : French
    Text #1ID : 4608 (0x1200)Menu ID : 1 (0x1)Format : PGSCodec ID : 144Language : Russian
    Text #2ID : 4609 (0x1201)Menu ID : 1 (0x1)Format : PGSCodec ID : 144Language : English
    Text #3ID : 4610 (0x1202)Menu ID : 1 (0x1)Format : PGSCodec ID : 144Language : French
    Text #4ID : 4611 (0x1203)Menu ID : 1 (0x1)Format : PGSCodec ID : 144Language : German
    Text #5ID : 4612 (0x1204)Menu ID : 1 (0x1)Format : PGSCodec ID : 144Language : Dutch
    Text #6ID : 4613 (0x1205)Menu ID : 1 (0x1)Format : PGSCodec ID : 144Language : Romanian

    Скриншот c названием фильма

    Скриншоты

    Резервные скриншоты


    -[3'096]
    Скачать .torrent

    Скачать торрент-файл бесплатно и на максимальной скорости!

    Как скачивать? · Что такое торрент? · Рейтинг и ограничения

    !ВНИМАНИЕ!
    Сайт не распространяет и не хранит электронные версии произведений, а занимается лишь лишь предоставлением доступа к создаваемому пользователями каталогу ссылок на торрент-файлы, которые содержат только списки хеш-сумм, убедительная просьба с жалобами обращаться напрямую к пользователю. Файлы для обмена на трекере предоставлены пользователями сайта, и администрация не несёт ответственности за их содержание. Просьба не заливать файлы, защищенные авторскими правами, а также файлы нелегального содержания!


    _________________
    [Профиль] [ЛС]
    Показать сообщения:    
    Ответить на тему

    Текущее время: Сегодня, в 10:43

    Часовой пояс: GMT + 2



    Вы не можете начинать темы
    Вы не можете отвечать на сообщения
    Вы не можете редактировать свои сообщения
    Вы не можете удалять свои сообщения
    Вы не можете голосовать в опросах
    Вы не можете прикреплять файлы к сообщениям
    Вы не можете скачивать файлы