BitTorrentTracker PerecTracker.org
BitTorrentTracker PerecTracker.org
    
Регистрация  ·  Вход
 
 · 
Забыли пароль?

  • Побег за мечтой (Константин Тищенко / Владимир Мистюков) [2015, Криминал, драма, WEB-DLRip]

    Ответить на тему
     
    Автор Сообщение

    Flirldrerve

    Создавать темы 21-Май-2016 19:22

           

    [Цитировать]

    Побег за мечтой
    Жанр: Криминал, драма
    Год выпуска: 2015
    Продолжительность: 01:15:46
    Режиссёр: Константин Тищенко / Владимир Мистюков
    В ролях: Владимир Вдовиченков, Мирослава Карпович, Андрей Чадов, Денис Косяков, Александр Кононец, Прохор Чеховской, Александр Фурсенко, Зоя Кайдановская, Алексей Фатеев, Константин Константинов.
    Описание: «Побег за мечтой» представляет три новеллы, объединенные одной идеей: какие испытания должны быть уготованы судьбой, чтобы человек сумел правильно расставить жизненные приоритеты? Первая история «Спринт» знакомит нас с начинающим писателем, который уже семь лет мечтает написать свой первый роман. Но ежедневные дела и заботы, желание жить в свое удовольствие мешают ему продвинуться дальше первого абзаца. И тут, словно гром среди ясного неба: он узнает, что неизлечимо болен, и жить ему осталось чуть больше месяца. Во второй новелле «Ненужное кредо» принципиальный врач отказывается подчиняться настоятельным рекомендациям начальства и продавать пациентам дорогостоящие и абсолютно бесполезные БАДы. А деньги ему срочно понадобятся: уверенный в своей безнаказанности вор требует выкуп за украденный номерной знак с его автомобиля. Третья история «Пробуждение» повествует о том, как циничный адвокат совершенно случайно сбивает на пешеходном переходе молодого парнишку. Дожидаться приезда полиции водитель не хочет, рассчитывает откупиться деньгами. Но удастся ли ему уйти от ответственности и заглушить голос собственной совести?
    Сэмпл: http://multi-up.com/1102411
    Качество видео: WEB-DLRip
    Формат видео: AVI
    Видео: XviD 1.2.1, 720x384, (1,85:1), 25,000 fps, 2187 Кбит/с, 8 бит
    Аудио: Русский (AC-3, 2 ch (Front: L R), 48,0 KHz, 384 Kbps)

    MediaInfo

    Общее
    Полное имя : F:\Видеофильмы\В и д е о\Побег за мечтой (криминал драма Вдовиченко 2015г).avi
    Формат : AVI
    Формат/Информация : Audio Video Interleave
    Размер файла : 1,37 Гбайт
    Продолжительность : 1 ч. 15 м.
    Общий поток : 2581 Кбит/сек
    Название фильма : p0beg.3a.me4t0j.2o15.O.WEB-DLRip.14OOMB
    Программа кодирования : VirtualDubMod 1.5.10.2 (build 2540/release)
    Формат оригинала/Имя : Movie
    Видео
    Идентификатор : 0
    Формат : MPEG-4 Visual
    Профиль формата : Advanced Simple@L5
    Параметр BVOP формата : 2
    Параметр QPel формата : Нет
    Параметр GMC формата : Без точки перехода
    Параметр матрицы формата : Default (MPEG)
    Идентификатор кодека : XVID
    Идентификатор кодека/Подсказка : XviD
    Продолжительность : 1 ч. 15 м.
    Битрейт : 2187 Кбит/сек
    Ширина : 720 пикселей
    Высота : 384 пикселя
    Соотношение сторон : 1,85:1
    Частота кадров : 25,000 кадров/сек
    Цветовое пространство : YUV
    Субдискретизация насыщенности : 4:2:0
    Битовая глубина : 8 бит
    Тип развёртки : Прогрессивная
    Метод сжатия : С потерями
    Бит/(Пиксели*Кадры) : 0.316
    Размер потока : 1,16 Гбайт (85%)
    Библиотека кодирования : XviD 1.2.1 (UTC 2008-12-04)
    Аудио
    Идентификатор : 1
    Формат : AC-3
    Формат/Информация : Audio Coding 3
    Расширение режима : CM (complete main)
    Параметр Endianness формата : Big
    Идентификатор кодека : 2000
    Продолжительность : 1 ч. 15 м.
    Вид битрейта : Постоянный
    Битрейт : 384 Кбит/сек
    Каналы : 2 канала
    Расположение каналов : Front: L R
    Частота : 48,0 КГц
    Частота кадров : 31,250 кадров/сек (1536 spf)
    Метод сжатия : С потерями
    Размер потока : 208 Мбайт (15%)
    Выравнивание : Разделение по промежуткам
    Продолжительность промежутка : 40 мс. (1,00 видеокадр)
    Время предзагрузки промежутка : 500 мс.

    Скриншот c названием фильма

    Скриншоты

    Скачать .torrent

    Скачать торрент-файл бесплатно и на максимальной скорости!

    Как скачивать? · Что такое торрент? · Рейтинг и ограничения

    !ВНИМАНИЕ!
    Сайт не распространяет и не хранит электронные версии произведений, а занимается лишь лишь предоставлением доступа к создаваемому пользователями каталогу ссылок на торрент-файлы, которые содержат только списки хеш-сумм, убедительная просьба с жалобами обращаться напрямую к пользователю. Файлы для обмена на трекере предоставлены пользователями сайта, и администрация не несёт ответственности за их содержание. Просьба не заливать файлы, защищенные авторскими правами, а также файлы нелегального содержания!


    _________________
    [Профиль] [ЛС]
    Показать сообщения:    
    Ответить на тему

    Текущее время: Сегодня, в 13:48

    Часовой пояс: GMT + 2



    Вы не можете начинать темы
    Вы не можете отвечать на сообщения
    Вы не можете редактировать свои сообщения
    Вы не можете удалять свои сообщения
    Вы не можете голосовать в опросах
    Вы не можете прикреплять файлы к сообщениям
    Вы не можете скачивать файлы