BitTorrentTracker PerecTracker.org
BitTorrentTracker PerecTracker.org
    
Регистрация  ·  Вход
 
 · 
Забыли пароль?

  • Зверополис / Zootopia (Байрон Ховард / Byron Howard, Рич Мур / Rich Moore, Джаред Буш / Jared Bush) [2016, США, Комедия, приключения, семейный, BDRip-AVC] Dub (Line) + Original Eng + eng sub

    Ответить на тему
     
    Автор Сообщение

    Flirldrerve

    Создавать темы 21-Май-2016 19:22

           

    [Цитировать]


    Зверополис | Zootopia
    «Welcome to the urban jungle»
    -Страна: США | Walt Disney Pictures, Walt Disney Animation Studios
    Жанр: Комедия, приключения, семейный
    Продолжительность: 01:48:32
    Год выпуска: 2016
    Перевод: Профессиональный (дублированный) - Центр. канал Line
    Русские субтитры: нет-Режиссёр: Байрон Ховард / Byron Howard, Рич Мур / Rich Moore, Джаред Буш / Jared Bush
    Роли озвучивали: Джиннифер Гудвин, Джейсон Бейтмен, Идрис Эльба, Дженни Слейт, Нейт Торренс, Бонни Хант, Дон Лейк, Томми Чонг, Дж.К. Симмонс, Октавия Спенсер, Алан Тьюдик, Шакира, Рэймонд С. Перси, Делла Саба, Морис ЛаМарш, Фуския, Джон Ди Маджио, Кэти Лоус, Джесси Корти, Том ’Тайни’ Листер мл.-ОписаниеДобро пожаловать в Зверополис - современный город, населенный самыми разными животными, от огромных слонов до крошечных мышек. Зверополис разделен на районы, полностью повторяющие естественную среду обитания разных жителей - здесь есть и элитный район Площадь Сахары и неприветливый Тундратаун. В этом городе появляется новый офицер полиции, жизнерадостная зайчиха Джуди Хоппс, которая с первых дней работы понимает, как сложно быть маленькой и пушистой среди больших и сильных полицейских. Джуди хватается за первую же возможность проявить себя, несмотря на то, что ее партнером будет болтливый хитрый лис Ник Уайлд. Вдвоем им предстоит раскрыть сложное дело, от которого будет зависеть судьба всех обитателей Зверополиса.-
    «Зверопо́лис» (англ. Zootopia) — американский компьютерно-анимационный комедийно-приключенческий фильм в формате 3D производства Walt Disney Animation Studios, выпущенный Walt Disney Pictures
    Релиз:


    IMDb: 8.30 (78 226)
    Качество: BDRip-AVC Zootopia.2016.BDRemux.1080p.LINE.RUS nnmclub
    Формат: MKV
    Видео: AVC 1385 Kbps 912 x 382 (2.387) 23.976 fps
    Аудио 1: AC-3 384 Kbps 6 channels, 48.0 KHz Rus Центр [Line]
    Аудио 2: AC-3 384 Kbps 6 channels, 48.0 KHz Eng
    Субтитры: English
    MI | Log

    Log

    x264 [info]: frame I:1408 Avg QP:15.33 size: 56888
    x264 [info]: frame P:32960 Avg QP:16.92 size: 16722
    x264 [info]: frame B:121774 Avg QP:20.19 size: 4351
    x264 [info]: consecutive B-frames: 2.2% 2.0% 5.5% 25.9% 18.3% 26.6% 6.7% 5.3% 3.4% 1.0% 2.3% 0.4% 0.1% 0.1% 0.2%
    x264 [info]: mb I I16..4: 6.2% 67.1% 26.7%
    x264 [info]: mb P I16..4: 0.6% 8.3% 2.1% P16..4: 29.5% 35.0% 14.8% 3.4% 0.5% skip: 5.8%
    x264 [info]: mb B I16..4: 0.1% 0.7% 0.2% B16..8: 30.4% 18.1% 3.4% direct: 3.7% skip:43.4% L0:42.3% L1:44.4% BI:13.3%
    x264 [info]: 8x8 transform intra:73.4% inter:52.5%
    x264 [info]: direct mvs spatial:99.9% temporal:0.1%
    x264 [info]: coded y,uvDC,uvAC intra: 91.5% 91.1% 79.0% inter: 15.3% 16.1% 6.2%
    x264 [info]: i16 v,h,dc,p: 16% 19% 5% 60%
    x264 [info]: i8 v,h,dc,ddl,ddr,vr,hd,vl,hu: 9% 11% 6% 9% 13% 12% 13% 12% 15%
    x264 [info]: i4 v,h,dc,ddl,ddr,vr,hd,vl,hu: 10% 11% 4% 9% 14% 13% 14% 11% 14%
    x264 [info]: i8c dc,h,v,p: 39% 27% 17% 16%
    x264 [info]: Weighted P-Frames: Y:3.6% UV:2.9%
    x264 [info]: ref P L0: 48.1% 9.4% 15.9% 6.2% 5.1% 3.9% 3.5% 1.9% 1.7% 1.4% 1.4% 1.4% 0.1% 0.0%
    x264 [info]: ref B L0: 71.2% 10.8% 6.4% 3.1% 2.3% 1.9% 1.7% 1.0% 0.8% 0.5% 0.2%
    x264 [info]: ref B L1: 93.7% 6.3%
    x264 [info]: kb/s:1426.26
    x264 [total]: encoded 156142 frames, 14.53 fps, 1426.26 kb/s, duration 2:59:07.94
    Format : Matroska
    Format version : Version 4 / Version 2
    File size : 1.67 GiB
    Duration : 1h 48mn
    Overall bit rate : 2 196 Kbps
    Encoded date : UTC 2016-05-21 12:20:17
    Writing application : mkvmerge v6.7.0 ('Back to the Ground') 32bit built on Jan 8 2014 15:03:17
    Writing library : libebml v1.3.0 + libmatroska v1.4.1
    Video
    ID : 1
    Format : AVC
    Format/Info : Advanced Video Codec
    Format profile : High@L4.1
    Format settings, CABAC : Yes
    Format settings, ReFrames : 12 frames
    Codec ID : V_MPEG4/ISO/AVC
    Duration : 1h 48mn
    Bit rate : 1 385 Kbps
    Width : 912 pixels
    Height : 382 pixels
    Display aspect ratio : 2.40:1
    Frame rate mode : Constant
    Frame rate : 23.976 (24000/1001) fps
    Color space : YUV
    Chroma subsampling : 4:2:0
    Bit depth : 8 bits
    Scan type : Progressive
    Bits/(Pixel*Frame) : 0.166
    Stream size : 1.05 GiB (63%)
    Title : Zootopia (2016) [perectracker.org]
    Writing library : x264 core 148 r2692kMod 64f4e24
    Encoding settings : cabac=1 / ref=12 / deblock=1:-2:-2 / analyse=0x3:0x133 / me=umh / subme=11 / psy=1 / fade_compensate=0.00 / psy_rd=1.00:0.05 / mixed_ref=1 / me_range=48 / chroma_me=1 / trellis=2 / 8x8dct=1 / cqm=0 / deadzone=21,11 / fast_pskip=0 / chroma_qp_offset=-3 / threads=12 / lookahead_threads=2 / sliced_threads=0 / nr=0 / decimate=1 / interlaced=0 / bluray_compat=0 / constrained_intra=0 / fgo=0 / bframes=14 / b_pyramid=2 / b_adapt=2 / b_bias=0 / direct=3 / weightb=1 / open_gop=0 / weightp=2 / keyint=250 / keyint_min=23 / scenecut=40 / intra_refresh=0 / rc_lookahead=60 / rc=crf / mbtree=0 / crf=17.5000 / qcomp=0.60 / qpmin=0 / qpmax=69 / qpstep=4 / vbv_maxrate=50000 / vbv_bufsize=62500 / crf_max=0.0 / nal_hrd=none / filler=0 / ip_ratio=1.40 / pb_ratio=1.30 / aq=3:0.90
    Language : English
    Default : Yes
    Forced : No
    Audio #1
    ID : 2
    Format : AC-3
    Format/Info : Audio Coding 3
    Mode extension : CM (complete main)
    Format settings, Endianness : Big
    Codec ID : A_AC3
    Duration : 1h 48mn
    Bit rate mode : Constant
    Bit rate : 384 Kbps
    Channel(s) : 6 channels
    Channel positions : Front: L C R, Side: L R, LFE
    Sampling rate : 48.0 KHz
    Frame rate : 31.250 fps (1536 spf)
    Compression mode : Lossy
    Stream size : 298 MiB (17%)
    Title : DUB [Line]
    Language : Russian
    Default : Yes
    Forced : No
    Audio #2
    ID : 3
    Format : AC-3
    Format/Info : Audio Coding 3
    Mode extension : CM (complete main)
    Format settings, Endianness : Big
    Codec ID : A_AC3
    Duration : 1h 48mn
    Bit rate mode : Constant
    Bit rate : 384 Kbps
    Channel(s) : 6 channels
    Channel positions : Front: L C R, Side: L R, LFE
    Sampling rate : 48.0 KHz
    Frame rate : 31.250 fps (1536 spf)
    Compression mode : Lossy
    Stream size : 298 MiB (17%)
    Title : Original
    Language : English
    Default : No
    Forced : No
    Text
    ID : 4
    Format : UTF-8
    Codec ID : S_TEXT/UTF8
    Codec ID/Info : UTF-8 Plain Text
    Title : Full
    Language : English
    Default : No
    Forced : No
    Menu
    00:00:00.000 : en:00:00:00.000
    00:00:59.559 : en:00:00:59.559
    00:05:50.100 : en:00:05:50.100
    00:10:05.563 : en:00:10:05.563
    00:14:31.537 : en:00:14:31.537
    00:18:24.019 : en:00:18:24.019
    00:26:03.353 : en:00:26:03.353
    00:30:57.439 : en:00:30:57.439
    00:37:07.100 : en:00:37:07.100
    00:40:43.441 : en:00:40:43.441
    00:44:31.752 : en:00:44:31.752
    00:51:40.430 : en:00:51:40.430
    00:55:40.378 : en:00:55:40.378
    01:00:48.269 : en:01:00:48.269
    01:03:37.855 : en:01:03:37.855
    01:09:19.822 : en:01:09:19.822
    01:13:39.165 : en:01:13:39.165
    01:17:07.372 : en:01:17:07.372
    01:21:52.366 : en:01:21:52.366
    01:28:19.169 : en:01:28:19.169
    01:32:43.433 : en:01:32:43.433
    01:36:12.141 : en:01:36:12.141[/pre]

    Скриншоты




    Скачать .torrent

    Скачать торрент-файл бесплатно и на максимальной скорости!

    Как скачивать? · Что такое торрент? · Рейтинг и ограничения

    !ВНИМАНИЕ!
    Сайт не распространяет и не хранит электронные версии произведений, а занимается лишь лишь предоставлением доступа к создаваемому пользователями каталогу ссылок на торрент-файлы, которые содержат только списки хеш-сумм, убедительная просьба с жалобами обращаться напрямую к пользователю. Файлы для обмена на трекере предоставлены пользователями сайта, и администрация не несёт ответственности за их содержание. Просьба не заливать файлы, защищенные авторскими правами, а также файлы нелегального содержания!


    _________________
    [Профиль] [ЛС]
    Показать сообщения:    
    Ответить на тему

    Текущее время: Сегодня, в 04:06

    Часовой пояс: GMT + 2



    Вы не можете начинать темы
    Вы не можете отвечать на сообщения
    Вы не можете редактировать свои сообщения
    Вы не можете удалять свои сообщения
    Вы не можете голосовать в опросах
    Вы не можете прикреплять файлы к сообщениям
    Вы не можете скачивать файлы