BitTorrentTracker PerecTracker.org
BitTorrentTracker PerecTracker.org
    
Регистрация  ·  Вход
 
 · 
Забыли пароль?

  • Боги Египта / Gods of Egypt (Алекс Пройас / Alex Proyas) [2016, США, Австралия, Фэнтези, боевик, приключения, BDRip, HD (720p)] DUB + Original + sub (eng)

    Ответить на тему
     
    Автор Сообщение

    rechyn

    Создавать темы 21-Май-2016 15:10

           

    [Цитировать]

    Боги Египта / Gods of Egypt
    «All of Heaven is at war»
    6.224 / 10 5.60 / 10
    -Год выпуска: 2016
    Страна: США, Австралия
    Жанр: Фэнтези, боевик, приключения
    Продолжительность: 02:07:02
    Перевод: Дублированный (Централ Партнершип)
    Оригинальная аудиодорожка: Есть
    Cубтитры: Английские
    Режиссёр: Алекс Пройас
    Сценарий: Мэтт Сазама, Берк Шарплесс
    Продюсер: Бэзил Иваник, Алекс Пройас, Брайан Букман
    Оператор: Питер Мензиес мл.
    Композитор: Марко Белтрами
    Художник: Оуэн Патерсон, Йен Грейси, Софи Нэш
    Монтаж: Ричард Лиройд
    В ролях: Брентон Туэйтс, Джерард Батлер, Николай Костер-Вальдау, Чедвик Боузман, Элоди Юнг, Кортни Итон, Руфус Сьюэлл, Джеффри Раш, Брайан Браун, Рэйчел Блейк
    Бюджет: $140 000 000
    Сборы в США: $31 153 464
    Сборы в мире: + $111 079 240 = $142 232 704
    Сборы в России: $11 530 390
    Мировая премьера: 24 февраля 2016
    Премьера (РФ): 25 февраля 2016, «Централ Партнершип»
    Описание: Некогда мирное и процветающее египетское царство погружается в хаос: беспощадный бог тьмы Сет убивает своего брата Осириса и узурпирует трон. Вызов ему неожиданно бросает простой смертный, находчивый молодой вор. Чтобы вернуть к жизни свою прекрасную возлюбленную, ему приходится заручиться поддержкой могущественного и мстительного бога Гора. Лишь выдержав испытание на прочность и принеся в жертву все самое дорогое, им удастся противостоять Сету и его приспешникам в мире живых и мире мертвых.-Качество исходника: BDRemux (HDClub)
    Качество: BDRip
    Тип: HD (720p)
    Контейнер: M4V
    Видео: H.264, 1280x536, 2.40:1, 3 500 Kbps, 23.976 (24000/1001) fps
    Аудио 1: Русский/Дублированный (Централ Партнершип), AAC / 2.0 / 159 Kbps / 48.0 KHz
    Аудио 2: Английский/Оригинальная дорожка , AAC / 2.0 / 159 Kbps / 48.0 KHz
    Аудио 3: Русский/Дублированный (Централ Партнершип), AC-3 / 5.1 / 640 Kbps / 48.0 KHz
    Аудио 4: Английский/Дублированный , AC-3 / 5.1 / 640 Kbps / 48.0 KHz
    Субтитры: Английские полные
    -

    iTunes Meta Tags

    Sort Name: Gods of Egypt
    XID: Apple:vendor_id:2016-682886
    contentID: 1082840783
    Copyright: © 2016 Summit Entertainment, LLC. All Rights Reserved.
    Screenwriters: Мэтт Сазама, Берк Шарплесс
    Producers: Бэзил Иваник, Алекс Пройас, Брайан Букман
    Director: Алекс Пройас
    Cast: Брентон Туэйтс, Джерард Батлер, Николай Костер-Вальдау, Чедвик Боузман, Элоди Юнг, Кортни Итон, Руфус Сьюэлл, Джеффри Раш, Брайан Браун, Рэйчел Блейк, Станислав Тикунов, Владимир Антоник, Илья Исаев, Сергей Смирнов, Ирина Киреева
    Studio: Summit Entertainment
    Rating: 4
    Long Description: Некогда мирное и процветающее египетское царство погружается в хаос: беспощадный бог тьмы Сет убивает своего брата Осириса и узурпирует трон. Вызов ему неожиданно бросает простой смертный, находчивый молодой вор. Чтобы вернуть к жизни свою прекрасную возлюбленную, ему приходится заручиться поддержкой могущественного и мстительного бога Гора. Лишь выдержав испытание на прочность и принеся в жертву все самое дорогое, им удастся противостоять Сету и его приспешникам в мире живых и мире мертвых.
    Description: Некогда мирное и процветающее египетское царство погружается в хаос: беспощадный бог тьмы Сет убивает своего брата Осириса и узурпирует трон. Вызов ему неожиданно бросает простой смертный, находчивый молодой вор. Чтобы вернуть к жизни свою прекрасную возлюбленную, ему приходится заручиться поддержкой могущественного и мстительного бога Гора. Лишь выдержав испытание на прочность и принеся в жертву все самое дорогое, им удастся противостоять Сету и его приспешникам в мире живых и мире мертвых.
    Release Date: 2016-02-24T08:00:00Z
    Genre: Action & Adventure
    Artist: Alex Proyas
    Name: Gods of Egypt

    MediaInfo

    General
    Complete name : /Users/imac/HandBrake/Gods of Egypt (720p HD).m4v
    Format : MPEG-4
    Codec ID : M4V  (M4V /M4A /mp42/isom)
    File size : 4.52 GiB
    Duration : 2h 7mn
    Overall bit rate mode : Variable
    Overall bit rate : 5 097 Kbps
    Movie name : Gods of Egypt
    Performer : Alex Proyas
    Director : Алекс Пройас
    Actor : Брентон Туэйтс / Джерард Батлер / Николай Костер-Вальдау / Чедвик Боузман / Элоди Юнг / Кортни Итон / Руфус Сьюэлл / Джеффри Раш / Брайан Браун / Рэйчел Блейк / Станислав Тикунов / Владимир Антоник / Илья Исаев / Сергей Смирнов / Ирина Киреева
    Screenplay by : Мэтт Сазама / Берк Шарплесс
    Producer : Бэзил Иваник / Алекс Пройас / Брайан Букман
    Production studio : Summit Entertainment
    Genre : Action & Adventure
    ContentType : Short Film
    Description : Некогда мирное и процветающее египетское царство погружается в хаос: беспощадный бог тьмы Сет убивает своего брата Осириса и узурпирует трон. Вызов ему неожиданно бросает простой смертный, находчивый молодой вор. Чтобы вернуть к жизни свою прекрасную возлюбленную, ему приходится заручиться поддержкой могущественного и мстительного бога Гора. Лишь выдержав испытание на прочность и принеся в жертву все самое дорогое, им удастся противостоять Сету и его приспешникам в мире живых и мире мертвых.
    Recorded date : UTC 2016-02-24 08:00:00
    Encoded date : UTC 2016-05-21 10:05:48
    Tagged date : UTC 2016-05-21 10:07:20
    Copyright : © 2016 Summit Entertainment, LLC. All Rights Reserved.
    Cover : Yes
    Rating : None
    Title/Sort : Gods of Egypt
    LongDescription : Некогда мирное и процветающее египетское царство погружается в хаос: беспощадный бог тьмы Сет убивает своего брата Осириса и узурпирует трон. Вызов ему неожиданно бросает простой смертный, находчивый молодой вор. Чтобы вернуть к жизни свою прекрасную возлюбленную, ему приходится заручиться поддержкой могущественного и мстительного бога Гора. Лишь выдержав испытание на прочность и принеся в жертву все самое дорогое, им удастся противостоять Сету и его приспешникам в мире живых и мире мертвых.
    HDVideo : Yes
    AppleStoreCatalogID : 1082840783
    Vendor : Apple:vendor_id:2016-682886
    ContentRating : mpaa|PG-13|300|
    Video #1
    ID : 1
    Format : AVC
    Format/Info : Advanced Video Codec
    Format profile : High@L3.1
    Format settings, CABAC : No
    Format settings, ReFrames : 3 frames
    Codec ID : avc1
    Codec ID/Info : Advanced Video Coding
    Duration : 2h 7mn
    Source duration : 2h 7mn
    Bit rate : 3 500 Kbps
    Width : 1 280 pixels
    Height : 536 pixels
    Display aspect ratio : 2.40:1
    Frame rate mode : Variable
    Frame rate : 23.976 (24000/1001) fps
    Minimum frame rate : 23.974 fps
    Maximum frame rate : 23.981 fps
    Color space : YUV
    Chroma subsampling : 4:2:0
    Bit depth : 8 bits
    Scan type : Progressive
    Bits/(Pixel*Frame) : 0.213
    Stream size : 3.10 GiB (68%)
    Source stream size : 3.10 GiB (68%)
    Title : Main Program
    Writing library : x264 core 142 r2479 dd79a61
    Encoding settings : cabac=0 / ref=3 / deblock=1:-3:-3 / analyse=0x3:0x113 / me=umh / subme=9 / psy=1 / psy_rd=1.00:0.15 / mixed_ref=1 / me_range=32 / chroma_me=1 / trellis=0 / 8x8dct=1 / cqm=0 / deadzone=21,11 / fast_pskip=0 / chroma_qp_offset=-2 / threads=36 / lookahead_threads=3 / sliced_threads=0 / nr=0 / decimate=0 / interlaced=0 / bluray_compat=0 / constrained_intra=0 / bframes=3 / b_pyramid=0 / b_adapt=2 / b_bias=0 / direct=1 / weightb=0 / open_gop=0 / weightp=0 / keyint=240 / keyint_min=24 / scenecut=40 / intra_refresh=0 / rc_lookahead=40 / rc=2pass / mbtree=1 / bitrate=3500 / ratetol=1.0 / qcomp=0.65 / qpmin=0 / qpmax=69 / qpstep=4 / cplxblur=20.0 / qblur=0.5 / vbv_maxrate=9500 / vbv_bufsize=9500 / nal_hrd=none / filler=0 / ip_ratio=1.40 / aq=1:1.10
    Language : English
    Encoded date : UTC 2016-05-21 10:05:48
    Tagged date : UTC 2016-05-21 10:05:55
    Color range : Limited
    Color primaries : BT.709
    Transfer characteristics : BT.709
    Matrix coefficients : BT.709
    Menus : 7,8
    Video #2
    ID : 8
    Format : JPEG
    Codec ID : jpeg
    Duration : 2h 7mn
    Bit rate mode : Variable
    Bit rate : 660 bps
    Width : 640 pixels
    Height : 268 pixels
    Display aspect ratio : 2.40:1
    Frame rate mode : Variable
    Frame rate : 0.002 fps
    Minimum frame rate : 0.001 fps
    Maximum frame rate : 0.003 fps
    Color space : YUV
    Chroma subsampling : 4:2:0
    Bit depth : 8 bits
    Compression mode : Lossy
    Bits/(Pixel*Frame) : 1.924
    Stream size : 766 KiB (0%)
    Title : Chapter Images
    Language : English
    Default : No
    Encoded date : UTC 2016-05-21 10:06:38
    Tagged date : UTC 2016-05-21 10:06:38
    Menu For : 1
    Audio #1
    ID : 2
    Format : AAC
    Format/Info : Advanced Audio Codec
    Format profile : LC
    Codec ID : 40
    Duration : 2h 7mn
    Bit rate mode : Variable
    Bit rate : 159 Kbps
    Maximum bit rate : 215 Kbps
    Channel(s) : 2 channels
    Channel positions : Front: L R
    Sampling rate : 48.0 KHz
    Frame rate : 46.875 fps (1024 spf)
    Compression mode : Lossy
    Stream size : 144 MiB (3%)
    Title : Russian Stereo
    Language : Russian
    Default : Yes
    Alternate group : 1
    Encoded date : UTC 2016-05-21 10:05:48
    Tagged date : UTC 2016-05-21 10:06:32
    Fallback From : 4
    Audio #2
    ID : 3
    Format : AAC
    Format/Info : Advanced Audio Codec
    Format profile : LC
    Codec ID : 40
    Duration : 2h 7mn
    Bit rate mode : Variable
    Bit rate : 159 Kbps
    Maximum bit rate : 222 Kbps
    Channel(s) : 2 channels
    Channel positions : Front: L R
    Sampling rate : 48.0 KHz
    Frame rate : 46.875 fps (1024 spf)
    Compression mode : Lossy
    Stream size : 144 MiB (3%)
    Title : English Stereo
    Language : English
    Default : No
    Alternate group : 1
    Encoded date : UTC 2016-05-21 10:05:48
    Tagged date : UTC 2016-05-21 10:06:32
    Fallback From : 5
    Audio #3
    ID : 4
    Format : AC-3
    Format/Info : Audio Coding 3
    Mode extension : CM (complete main)
    Format settings, Endianness : Big
    Codec ID : ac-3
    Duration : 2h 7mn
    Bit rate mode : Constant
    Bit rate : 640 Kbps
    Channel(s) : 6 channels
    Channel positions : Front: L C R, Side: L R, LFE
    Sampling rate : 48.0 KHz
    Frame rate : 31.250 fps (1536 spf)
    Bit depth : 16 bits
    Compression mode : Lossy
    Stream size : 582 MiB (13%)
    Title : Russian DD 5.1
    Language : Russian
    Default : Inherited From: 2
    Alternate group : 1
    Encoded date : UTC 2016-05-21 10:05:48
    Tagged date : UTC 2016-05-21 10:06:32
    Fallback To : 2
    Audio #4
    ID : 5
    Format : AC-3
    Format/Info : Audio Coding 3
    Mode extension : CM (complete main)
    Format settings, Endianness : Big
    Codec ID : ac-3
    Duration : 2h 7mn
    Bit rate mode : Constant
    Bit rate : 640 Kbps
    Channel(s) : 6 channels
    Channel positions : Front: L C R, Side: L R, LFE
    Sampling rate : 48.0 KHz
    Frame rate : 31.250 fps (1536 spf)
    Bit depth : 16 bits
    Compression mode : Lossy
    Stream size : 582 MiB (13%)
    Title : English DD 5.1
    Language : English
    Default : No
    Alternate group : 1
    Encoded date : UTC 2016-05-21 10:05:48
    Tagged date : UTC 2016-05-21 10:06:32
    Fallback To : 3
    Text
    ID : 6
    Format : Timed Text
    Muxing mode : sbtl
    Codec ID : tx3g
    Duration : 1h 56mn
    Bit rate mode : Variable
    Bit rate : 51 bps
    Stream size : 43.4 KiB (0%)
    Title : English full
    Language : English
    Default : Yes
    Forced : No
    Alternate group : 2
    Encoded date : UTC 2016-05-21 10:05:48
    Tagged date : UTC 2016-05-21 10:06:29
    Menu #1
    00:00:00.000 : 1
    00:05:48.000 : 2
    00:11:38.916 : 3
    00:17:54.874 : 4
    00:23:43.540 : 5
    00:29:26.373 : 6
    00:35:03.498 : 7
    00:41:23.039 : 8
    00:46:25.539 : 9
    00:53:57.872 : 10
    00:59:23.080 : 11
    01:06:10.121 : 12
    01:13:11.787 : 13
    01:19:48.662 : 14
    01:28:10.662 : 15
    01:36:03.995 : 16
    01:41:55.536 : 17
    01:48:43.452 : 18
    01:54:08.785 : 19
    Menu #2
    ID : 7
    Codec ID : text
    Duration : 2h 7mn
    Language : English
    Encoded date : UTC 2016-05-21 10:06:32
    Tagged date : UTC 2016-05-21 10:06:32
    Menu For : 1
    00:00:00.000 : 1
    00:05:48.000 : 2
    00:11:38.916 : 3
    00:17:54.874 : 4
    00:23:43.540 : 5
    00:29:26.373 : 6
    00:35:03.498 : 7
    00:41:23.039 : 8
    00:46:25.539 : 9
    00:53:57.872 : 10
    00:59:23.080 : 11
    01:06:10.121 : 12
    01:13:11.787 : 13
    01:19:48.662 : 14
    01:28:10.662 : 15
    01:36:03.995 : 16
    01:41:55.536 : 17
    01:48:43.452 : 18
    01:54:08.785 : 19
    Bit rate mode : VBR

    x264 лог

    x264 [info]: frame I:2358  Avg QP:16.70  size:103442
    x264 [info]: frame P:74636 Avg QP:19.36  size: 29839
    x264 [info]: frame B:105767 Avg QP:21.87  size:  8066
    x264 [info]: consecutive B-frames:  6.8% 36.4% 34.7% 22.0%
    x264 [info]: mb I  I16..4:  8.0% 54.5% 37.5%
    x264 [info]: mb P  I16..4:  2.2%  6.4%  3.2%  P16..4: 45.7% 22.8% 10.0%  0.0%  0.0%    skip: 9.7%
    x264 [info]: mb B  I16..4:  0.2%  1.0%  0.6%  B16..8: 39.9%  9.1%  1.8%  direct: 4.2%  skip:43.3%  L0:36.6% L1:53.3% BI:10.1%
    x264 [info]: 8x8 transform intra:54.4% inter:47.6%
    x264 [info]: coded y,uvDC,uvAC intra: 77.8% 79.8% 54.7% inter: 24.1% 21.7% 10.3%
    x264 [info]: i16 v,h,dc,p: 39% 15%  8% 38%
    x264 [info]: i8 v,h,dc,ddl,ddr,vr,hd,vl,hu: 11%  7%  5% 11% 15% 14% 14% 11% 11%
    x264 [info]: i4 v,h,dc,ddl,ddr,vr,hd,vl,hu: 10%  8%  4% 11% 17% 15% 14% 10% 10%
    x264 [info]: i8c dc,h,v,p: 48% 19% 20% 13%
    x264 [info]: ref P L0: 76.5% 13.7%  9.9%
    x264 [info]: ref B L0: 84.3% 15.7%
    x264 [info]: kb/s:3488.70

    Скриншоты

    -

    Релиз подготовлен для просмотра на Apple TV, iPad, iPhone, iPod Touch.
    Для просмотра данного релиза на компьютере с ОС Windows рекомендуется использовать VLC media player
    Скачать .torrent

    Скачать торрент-файл бесплатно и на максимальной скорости!

    Как скачивать? · Что такое торрент? · Рейтинг и ограничения

    !ВНИМАНИЕ!
    Сайт не распространяет и не хранит электронные версии произведений, а занимается лишь лишь предоставлением доступа к создаваемому пользователями каталогу ссылок на торрент-файлы, которые содержат только списки хеш-сумм, убедительная просьба с жалобами обращаться напрямую к пользователю. Файлы для обмена на трекере предоставлены пользователями сайта, и администрация не несёт ответственности за их содержание. Просьба не заливать файлы, защищенные авторскими правами, а также файлы нелегального содержания!


    _________________
    [Профиль] [ЛС]
    Показать сообщения:    
    Ответить на тему

    Текущее время: Сегодня, в 04:37

    Часовой пояс: GMT + 2



    Вы не можете начинать темы
    Вы не можете отвечать на сообщения
    Вы не можете редактировать свои сообщения
    Вы не можете удалять свои сообщения
    Вы не можете голосовать в опросах
    Вы не можете прикреплять файлы к сообщениям
    Вы не можете скачивать файлы