BitTorrentTracker PerecTracker.org
BitTorrentTracker PerecTracker.org
    
Регистрация  ·  Вход
 
 · 
Забыли пароль?

  • Виктория / Victoria (Себастьян Шиппер / Sebastian Schipper) [2015, Германия, триллер, драма, криминал, BDRip-AVC] MVO + Sub (rus, ger, eng)

    Ответить на тему
     
    Автор Сообщение

    Light

    Создавать темы 21-Май-2016 11:05

           

    [Цитировать]

    Виктория
    Victoria
    «Одна ночь. Один город. Одна девушка. Один кадр»

    Страна: Германия
    Жанр: триллер, драма, криминал
    Год выпуска: 2015
    Продолжительность: 02:18:38
    Перевод: Профессиональный (многоголосый, закадровый) [Лицензия iTunes]
    Субтитры: русские (полные), немецкие (полные, SDH), английские (полные)
    Оригинальная аудиодорожка: нет
    Режиссер: Себастьян Шиппер / Sebastian Schipper
    В ролях: Лайа Коста, Фредерик Лау, Франц Роговский, Бурак Йийит, Макс Мауфф, Андре Хеннике, Анна-Лена Кленке, Ганс-Ульрих Локс, Айке Фредерик Шульц, Адольфо Ассор, Ян Брюштедт, Амбар де ла Хорра
    Описание:
    Виктория - испанская девушка, которая живет в Берлине. Однажды на выходе из клуба она знакомится с четырьмя парнями - Зонне, Боксером, Блинкером и Фусом. Ребята обещают ей показать «настоящий Берлин».
    Но прогулкой по ночному городу дело не ограничивается. Оказывается, парням нужно разобраться со старым долгом, а поскольку один из них слишком пьян, они просят Викторию побыть водителем.
    Автор рипа: Stalker oK
    Сэмпл
    Качество видео: BDRip-AVC [Blu-ray Remux 1080p HDSky]
    Формат видео: MKV
    Видео кодек: AVC
    Аудио кодек: AC3
    Видео: 1114 Кбит/сек, 912x380 (2.40:1), 23,976 кадр/сек, AVC
    Аудио: русский, 384 Кбит/сек, 48,0 КГц, 6 каналов, AC-3
    Навигация по главам: есть

    MediaInfo

    Общее
    Уникальный идентификатор : 246593795154806695134757838599504912853 (0xB9843CC77BB8D47A94DEB3352149E1D5)
    Полное имя : M:\1Rips\Victoria\Новая папка\Victoria.2015.BDRip-AVC.MVO.1.45Gb.stalkerok.new-team.mkv
    Формат : Matroska
    Версия формата : Version 4 / Version 2
    Размер файла : 1,45 Гбайт
    Продолжительность : 2 ч. 18 м.
    Общий поток : 1499 Кбит/сек
    Название фильма : Victoria (2015) (New-Team) (Rip by Stalker oK)
    Дата кодирования : UTC 2016-05-20 12:49:46
    Программа кодирования : mkvmerge v8.6.1 ('Flying') 64bit
    Библиотека кодирования : libebml v1.3.3 + libmatroska v1.4.4
    Видео
    Идентификатор : 1
    Формат : AVC
    Формат/Информация : Advanced Video Codec
    Профиль формата : High@L4.1
    Параметр CABAC формата : Да
    Параметр ReFrames формата : 13 кадров
    Идентификатор кодека : V_MPEG4/ISO/AVC
    Продолжительность : 2 ч. 18 м.
    Битрейт : 1114 Кбит/сек
    Ширина : 912 пикселей
    Высота : 380 пикселей
    Соотношение сторон : 2,40:1
    Режим частоты кадров : Постоянный
    Частота кадров : 23,976 (24000/1001) кадра/сек
    Цветовое пространство : YUV
    Субдискретизация насыщенности : 4:2:0
    Битовая глубина : 8 бит
    Тип развёртки : Прогрессивная
    Бит/(Пиксели*Кадры) : 0.134
    Размер потока : 1,08 Гбайт (74%)
    Заголовок : Victoria (2015) (New-Team) (Rip by Stalker oK)
    Библиотека кодирования : x264 core 146 r2538kMod 121396c
    Настройки программы : cabac=1 / ref=13 / deblock=1:-3:-3 / analyse=0x3:0x133 / me=umh / subme=11 / psy=1 / fade_compensate=0.00 / psy_rd=1.00:0.10 / mixed_ref=1 / me_range=48 / chroma_me=1 / trellis=2 / 8x8dct=1 / cqm=0 / deadzone=21,11 / fast_pskip=0 / chroma_qp_offset=-3 / threads=12 / lookahead_threads=2 / sliced_threads=0 / nr=0 / decimate=0 / interlaced=0 / bluray_compat=0 / constrained_intra=0 / fgo=0 / bframes=15 / b_pyramid=2 / b_adapt=2 / b_bias=0 / direct=3 / weightb=1 / open_gop=0 / weightp=2 / keyint=240 / keyint_min=23 / scenecut=40 / intra_refresh=0 / rc_lookahead=60 / rc=2pass / mbtree=0 / bitrate=1114 / ratetol=1.0 / qcomp=0.70 / qpmin=0 / qpmax=69 / qpstep=4 / cplxblur=20.0 / qblur=0.5 / vbv_maxrate=50000 / vbv_bufsize=62500 / nal_hrd=none / filler=0 / ip_ratio=1.40 / pb_ratio=1.30 / aq=3:0.95
    Default : Да
    Forced : Нет
    Аудио
    Идентификатор : 2
    Формат : AC-3
    Формат/Информация : Audio Coding 3
    Расширение режима : CM (complete main)
    Параметр Endianness формата : Big
    Идентификатор кодека : A_AC3
    Продолжительность : 2 ч. 18 м.
    Вид битрейта : Постоянный
    Битрейт : 384 Кбит/сек
    Каналы : 6 каналов
    Расположение каналов : Front: L C R, Side: L R, LFE
    Частота : 48,0 КГц
    Частота кадров : 31,250 кадров/сек (1536 spf)
    Метод сжатия : С потерями
    Размер потока : 381 Мбайт (26%)
    Язык : Russian
    Default : Да
    Forced : Нет
    Текст #1
    Идентификатор : 3
    Формат : UTF-8
    Идентификатор кодека : S_TEXT/UTF8
    Идентификатор кодека/Информация : UTF-8 Plain Text
    Продолжительность : 2 ч. 10 м.
    Битрейт : 68 бит/сек
    Count of elements : 1600
    Размер потока : 65,1 Кбайт (0%)
    Язык : Russian
    Default : Нет
    Forced : Нет
    Текст #2
    Идентификатор : 4
    Формат : UTF-8
    Идентификатор кодека : S_TEXT/UTF8
    Идентификатор кодека/Информация : UTF-8 Plain Text
    Продолжительность : 2 ч. 1 м.
    Битрейт : 22 бит/сек
    Count of elements : 623
    Размер потока : 20,3 Кбайт (0%)
    Заголовок : Fremdsprachige Dialoge
    Язык : German
    Default : Нет
    Forced : Нет
    Текст #3
    Идентификатор : 5
    Формат : UTF-8
    Идентификатор кодека : S_TEXT/UTF8
    Идентификатор кодека/Информация : UTF-8 Plain Text
    Продолжительность : 2 ч. 13 м.
    Битрейт : 44 бит/сек
    Count of elements : 1389
    Размер потока : 43,8 Кбайт (0%)
    Язык : German
    Default : Нет
    Forced : Нет
    Текст #4
    Идентификатор : 6
    Формат : UTF-8
    Идентификатор кодека : S_TEXT/UTF8
    Идентификатор кодека/Информация : UTF-8 Plain Text
    Продолжительность : 2 ч. 1 м.
    Битрейт : 45 бит/сек
    Count of elements : 1296
    Размер потока : 40,5 Кбайт (0%)
    Заголовок : Untertitel für Gehörlose
    Язык : German
    Default : Нет
    Forced : Нет
    Текст #5
    Идентификатор : 7
    Формат : UTF-8
    Идентификатор кодека : S_TEXT/UTF8
    Идентификатор кодека/Информация : UTF-8 Plain Text
    Продолжительность : 1 ч. 58 м.
    Битрейт : 19 бит/сек
    Count of elements : 599
    Размер потока : 16,6 Кбайт (0%)
    Заголовок : Foreign Parts
    Язык : English
    Default : Нет
    Forced : Нет
    Текст #6
    Идентификатор : 8
    Формат : UTF-8
    Идентификатор кодека : S_TEXT/UTF8
    Идентификатор кодека/Информация : UTF-8 Plain Text
    Продолжительность : 2 ч. 11 м.
    Битрейт : 42 бит/сек
    Count of elements : 1287
    Размер потока : 41,2 Кбайт (0%)
    Язык : English
    Default : Нет
    Forced : Нет
    Меню
    00:00:00.000 : en:Chapter 1
    00:10:21.995 : en:Chapter 2
    00:21:48.723 : en:Chapter 3
    00:32:57.099 : en:Chapter 4
    00:42:58.242 : en:Chapter 5
    00:54:49.744 : en:Chapter 6
    01:05:22.918 : en:Chapter 7
    01:15:35.279 : en:Chapter 8
    01:27:03.885 : en:Chapter 9
    01:37:57.287 : en:Chapter 10
    01:48:43.225 : en:Chapter 11
    01:57:24.494 : en:Chapter 12
    02:06:08.435 : en:Chapter 13
    02:14:39.195 : en:Chapter 14

    Скриншоты

    Скачать .torrent

    Скачать торрент-файл бесплатно и на максимальной скорости!

    Как скачивать? · Что такое торрент? · Рейтинг и ограничения

    !ВНИМАНИЕ!
    Сайт не распространяет и не хранит электронные версии произведений, а занимается лишь лишь предоставлением доступа к создаваемому пользователями каталогу ссылок на торрент-файлы, которые содержат только списки хеш-сумм, убедительная просьба с жалобами обращаться напрямую к пользователю. Файлы для обмена на трекере предоставлены пользователями сайта, и администрация не несёт ответственности за их содержание. Просьба не заливать файлы, защищенные авторскими правами, а также файлы нелегального содержания!


    _________________
    [Профиль] [ЛС]
    Показать сообщения:    
    Ответить на тему

    Текущее время: Сегодня, в 16:13

    Часовой пояс: GMT + 2



    Вы не можете начинать темы
    Вы не можете отвечать на сообщения
    Вы не можете редактировать свои сообщения
    Вы не можете удалять свои сообщения
    Вы не можете голосовать в опросах
    Вы не можете прикреплять файлы к сообщениям
    Вы не можете скачивать файлы