BitTorrentTracker PerecTracker.org
BitTorrentTracker PerecTracker.org
    
Регистрация  ·  Вход
 
 · 
Забыли пароль?

  • Джен Эйр / Джейн Эйр / Jane Eyre (Кэри Фукунага / Cary Joji Fukunaga ) [2011, Великобритания, США, драма, мелодрама HDRip] DUB

    Ответить на тему
     
    Автор Сообщение

    Light

    Создавать темы 21-Май-2016 11:05

           

    [Цитировать]

    Джен Эйр / Джейн Эйр / Jane Eyre
    Страна: Великобритания, США, BBC Films, Focus Features
    Жанр: драма, мелодрама
    Год выпуска: 2011
    Продолжительность: 02:00:03
    Перевод: Профессиональный (полное дублирование) BD RUS
    Субтитры: нет
    Режиссер: Кэри Фукунага / Cary Joji Fukunaga
    В ролях: Миа Васиковска, Майкл Фассбендер, Джуди Денч, Джейми Белл, Салли Хокинс, Саймон МакБерни, Валентина Черви, Роми Сеттбон Мур, Имоджен Путс, Амелия Кларксон
    Описание:
    Викторианская Англия.
    После восьми лет, проведенных в пансионе для бедных девочек, сирота Джейн Эйр получает место гувернантки в Торнфилде — вотчине Эдварда Ферфакса Рочестера.
    Хозяин поместья редко наведывается в родные края, а в его отсутствие Джейн должна присматривать за восьмилетней Адель Варанс — воспитанницей аристократа.
    И вот однажды Рочестер возвращается.
    Так начинается одна из самых известных романтических историй в европейской литературе и мировом кино…
    Семпл
    Качество видео: HDRip (исходник - BDRip 720p (HDCLUB))
    Формат видео: AVI
    Видео: 1559 Kbps, 720x400, 23,976 fps, DivX5
    Аудио: 192 Kbps, 48 KHz, 2 ch, AC3

    Медиаинфо

    General
    Complete name : E:\Jane_Eyre_2011.avi
    Format : AVI
    Format/Info : Audio Video Interleave
    File size : 1.48 GiB
    Duration : 2h 0mn
    Overall bit rate : 1 761 Kbps
    Writing application : VirtualDubMod 1.5.10.3 | www.virtualdub-fr.org || (build 2550/release)
    Writing library : VirtualDubMod build 2550/release
    Video
    ID : 0
    Format : MPEG-4 Visual
    Format profile : Simple@L1
    Format settings, BVOP : No
    Format settings, QPel : No
    Format settings, GMC : No warppoints
    Format settings, Matrix : Default (H.263)
    Codec ID : DX50
    Codec ID/Hint : DivX 5
    Duration : 2h 0mn
    Bit rate : 1 559 Kbps
    Width : 720 pixels
    Height : 400 pixels
    Display aspect ratio : 16:9
    Frame rate : 23.976 fps
    Resolution : 8 bits
    Colorimetry : 4:2:0
    Scan type : Progressive
    Bits/(Pixel*Frame) : 0.226
    Stream size : 1.31 GiB (89%)
    Writing library : Lavc51.40.4
    Audio
    ID : 1
    Format : AC-3
    Format/Info : Audio Coding 3
    Format_Settings_ModeExtension : CM (complete main)
    Codec ID : 2000
    Duration : 2h 0mn
    Bit rate mode : Constant
    Bit rate : 192 Kbps
    Channel(s) : 2 channels
    Channel positions : Front: L R
    Sampling rate : 44.1 KHz
    Stream size : 165 MiB (11%)
    Alignment : Split accross interleaves
    Interleave, duration : 42 ms (1.00 video frame)
    Interleave, preload duration : 500 ms

    Скриншоты


    Скачать .torrent

    Скачать торрент-файл бесплатно и на максимальной скорости!

    Как скачивать? · Что такое торрент? · Рейтинг и ограничения

    !ВНИМАНИЕ!
    Сайт не распространяет и не хранит электронные версии произведений, а занимается лишь лишь предоставлением доступа к создаваемому пользователями каталогу ссылок на торрент-файлы, которые содержат только списки хеш-сумм, убедительная просьба с жалобами обращаться напрямую к пользователю. Файлы для обмена на трекере предоставлены пользователями сайта, и администрация не несёт ответственности за их содержание. Просьба не заливать файлы, защищенные авторскими правами, а также файлы нелегального содержания!


    _________________
    [Профиль] [ЛС]
    Показать сообщения:    
    Ответить на тему

    Текущее время: Сегодня, в 16:15

    Часовой пояс: GMT + 2



    Вы не можете начинать темы
    Вы не можете отвечать на сообщения
    Вы не можете редактировать свои сообщения
    Вы не можете удалять свои сообщения
    Вы не можете голосовать в опросах
    Вы не можете прикреплять файлы к сообщениям
    Вы не можете скачивать файлы