BitTorrentTracker PerecTracker.org
BitTorrentTracker PerecTracker.org
    
Регистрация  ·  Вход
 
 · 
Забыли пароль?

  • Перед рассветом (Ярополк Лапшин) [1989, драма, военный, HDTVRip]

    Ответить на тему
     
    Автор Сообщение

    Flirldrerve

    Создавать темы 21-Май-2016 11:05

           

    [Цитировать]

    Перед рассветом
    Жанр: драма, военный
    Год выпуска: 1989
    Продолжительность: 01:19:36

    Режиссёр: Ярополк Лапшин
    В ролях: Александр Панкратов-Черный, Николай Бадьев, Евгений Миронов, Валерий Рыжаков, Раиса Рязанова, Константин Степанков, Вера Альховская, Олег Корчиков, Вячеслав Кириличев, Игорь Головин
    Описание: Жаркое лето 1941 года. Небольшая станция в прифронтовой полосе. В один из вагонов погружают группу уголовников. Не успевает поезд проехать и несколько километров, как подвергается налету авиации и атаке десанта. После боя из всего состава в живых остаются только трое: молодой лейтенант НКВД, «вор в законе» и репрессированный генерал. Они бегут в лес, подальше от разбитого поезда и преследующих их немцев. В такой ситуации заключенные, казалось, могли бы считать себя свободными, но лейтенант думает иначе и намерен доставить их к месту назначения.
    Качество видео: HDTVRip [Pered.rassvetom.1989.HDTV.1080i.ts]
    Формат видео: AVI
    Видео: 656x480 (1.37:1), 25 fps, XviD build 73 ~2377 kbps avg, 0.30 bit/pixel
    Аудио: 48 kHz, Microsoft MPEG, 2 ch, ~192.00 kbps avg

    MediaInfo

    Общее
    Полное имя : H:\Перед.рассветом.1989.hdtvrip_[1.46]_[teko].avi
    Формат : AVI
    Формат/Информация : Audio Video Interleave
    Размер файла : 1,43 Гбайт
    Продолжительность : 1 ч. 19 м.
    Общий поток : 2580 Кбит/сек
    Программа кодирования : VirtualDubMod 1.5.10.3 | www.virtualdub-fr.org || (build 2550/release)
    Библиотека кодирования : VirtualDubMod build 2550/release
    Видео
    Идентификатор : 0
    Формат : MPEG-4 Visual
    Профиль формата : Advanced Simple@L5
    Параметр BVOP формата : 2
    Параметр QPel формата : Нет
    Параметр GMC формата : Без точки перехода
    Параметр матрицы формата : Выборочная
    Идентификатор кодека : XVID
    Идентификатор кодека/Подсказка : XviD
    Продолжительность : 1 ч. 19 м.
    Битрейт : 2378 Кбит/сек
    Ширина : 656 пикселей
    Высота : 480 пикселей
    Соотношение сторон : 4:3
    Частота кадров : 25,000 кадров/сек
    Цветовое пространство : YUV
    Субдискретизация насыщенности : 4:2:0
    Битовая глубина : 8 бит
    Тип развёртки : Прогрессивная
    Метод сжатия : С потерями
    Бит/(Пиксели*Кадры) : 0.302
    Размер потока : 1,32 Гбайт (92%)
    Библиотека кодирования : XviD 73
    Аудио
    Идентификатор : 1
    Формат : MPEG Audio
    Версия формата : Version 1
    Профиль формата : Layer 2
    Идентификатор кодека : 50
    Продолжительность : 1 ч. 19 м.
    Вид битрейта : Постоянный
    Битрейт : 192 Кбит/сек
    Каналы : 2 канала
    Частота : 48,0 КГц
    Метод сжатия : С потерями
    Размер потока : 109 Мбайт (7%)
    Выравнивание : Соединение по промежуткам
    Продолжительность промежутка : 40 мс. (1,00 видеокадр)
    Время предзагрузки промежутка : 504 мс.

    Скриншоты

    Релиз группы:

    -
    -
    Скачать .torrent

    Скачать торрент-файл бесплатно и на максимальной скорости!

    Как скачивать? · Что такое торрент? · Рейтинг и ограничения

    !ВНИМАНИЕ!
    Сайт не распространяет и не хранит электронные версии произведений, а занимается лишь лишь предоставлением доступа к создаваемому пользователями каталогу ссылок на торрент-файлы, которые содержат только списки хеш-сумм, убедительная просьба с жалобами обращаться напрямую к пользователю. Файлы для обмена на трекере предоставлены пользователями сайта, и администрация не несёт ответственности за их содержание. Просьба не заливать файлы, защищенные авторскими правами, а также файлы нелегального содержания!


    _________________
    [Профиль] [ЛС]
    Показать сообщения:    
    Ответить на тему

    Текущее время: Сегодня, в 22:32

    Часовой пояс: GMT + 2



    Вы не можете начинать темы
    Вы не можете отвечать на сообщения
    Вы не можете редактировать свои сообщения
    Вы не можете удалять свои сообщения
    Вы не можете голосовать в опросах
    Вы не можете прикреплять файлы к сообщениям
    Вы не можете скачивать файлы