BitTorrentTracker PerecTracker.org
BitTorrentTracker PerecTracker.org
    
Регистрация  ·  Вход
 
 · 
Забыли пароль?

  • СуперБобровы (Дмитрий Дьяченко) [2016, Россия, комедия, семейный, BDRip-AVC]

    Ответить на тему
     
    Автор Сообщение

    Flirldrerve

    Создавать темы 21-Май-2016 02:47

           

    [Цитировать]

    СуперБобровы«Вместе мы сила»-Страна: Россия
    Жанр: комедия, семейный
    Год выпуска: 2016
    Продолжительность: 01:31:28
    Перевод: Не требуется
    Оригинальная аудиодорожка: русский
    Режиссер: Дмитрий Дьяченко
    В ролях: Павел Деревянко, Оксана Акиньшина, Роман Мадянов, Ирина Пегова, Владимир Толоконников, Даниил Вахрушев, Софья Мицкевич, Михаил Шамигулов, Елизавета Кононова, Виталий Кищенко, Алексей Хардиков, Андрей Ребенков
    Описание: Вместо десерта на ужин семейство Бобровых получило... метеорит. Настоящий, большой, из космоса. Благодаря ему Бобровы вдруг приобретают немыслимые сверхспособности. Дед становится бессмертным, а отец теперь может телепортироваться. Сын начинает понимать собачий язык, а его сёстры получают суперсилу, возможность летать и быть невидимой. Единственное ограничение - способности действуют только когда вся семейка в сборе.
    Короче, у заурядной, среднестатистической ячейки общества появляется шанс превратиться в отряд настоящих супергероев. Вот только вместо того, чтобы спасать мир, они решают ограбить ближайший банк...

    Качество: BDRip-AVC (исходник - Blu-ray)
    Формат: MKV
    Видео: x264, 1152x486 (2.40:1), 25.000 кадр/сек, 3800 Кбит/сек, 0.271 bit/pixel
    Аудио: 48 kHz, AC3 Dolby Digital, 3/2 (L,C,R,l,r) + LFE ch, ~448 kbps avg
    MediaInfo | x264 log
    ormat : Matroska
    Format version : Version 4 / Version 2
    File size : 2.77 GiB
    Duration : 1h 31mn
    Overall bit rate : 4 334 Kbps
    Movie name : СуперБобровы (2016) :: AFM ::
    Encoded date : UTC 2016-05-20 20:20:25
    Writing application : mkvmerge v8.3.0 ('Over the Horizon') 32bit
    Writing library : libebml v1.3.1 + libmatroska v1.4.2
    Video
    ID : 1
    Format : AVC
    Format/Info : Advanced Video Codec
    Format profile : High@L4.1
    Format settings, CABAC : Yes
    Format settings, ReFrames : 12 frames
    Codec ID : V_MPEG4/ISO/AVC
    Duration : 1h 31mn
    Bit rate : 3 800 Kbps
    Width : 1 152 pixels
    Height : 486 pixels
    Display aspect ratio : 2.40:1
    Frame rate mode : Constant
    Frame rate : 25.000 fps
    Color space : YUV
    Chroma subsampling : 4:2:0
    Bit depth : 8 bits
    Scan type : Progressive
    Bits/(Pixel*Frame) : 0.271
    Stream size : 2.43 GiB (88%)
    Title : BDRip by AFM [RuTracker.org]
    Writing library : x264 core 148 r2665+53 6629127 t_mod_Custom [8-bit@all X86_64]
    Encoding settings : cabac=1 / ref=12 / deblock=1:-3:-3 / analyse=0x3:0x113 / me=umh / subme=10 / psy=1 / fade_compensate=0.00 / psy_rd=1.00:0.00 / mixed_ref=1 / me_range=32 / chroma_me=1 / trellis=2 / 8x8dct=1 / cqm=0 / deadzone=21,11 / fast_pskip=0 / chroma_qp_offset=-2 / threads=6 / lookahead_threads=1 / sliced_threads=0 / nr=0 / decimate=1 / interlaced=0 / bluray_compat=0 / constrained_intra=0 / fgo=0 / bframes=10 / b_pyramid=2 / b_adapt=2 / b_bias=0 / direct=1 / weightb=1 / open_gop=0 / weightp=2 / keyint=250 / keyint_min=25 / scenecut=40 / intra_refresh=0 / rc_lookahead=40 / rc=crf / mbtree=0 / crf=17.0000 / qcomp=0.65 / qpmin=0:0:0 / qpmax=69:69:69 / qpstep=4 / vbv_maxrate=50000 / vbv_bufsize=62500 / crf_max=0.0 / nal_hrd=none / filler=0 / ip_ratio=1.35 / pb_ratio=1.30 / aq=1:0.80 / aq-sensitivity=10.00 / aq-factor=1.00:1.00:1.00 / aq2=0 / aq3=0 / zones=132045,137207,q=30
    Language : English
    Default : Yes
    Forced : No
    Audio
    ID : 2
    Format : AC-3
    Format/Info : Audio Coding 3
    Mode extension : CM (complete main)
    Format settings, Endianness : Big
    Codec ID : A_AC3
    Duration : 1h 31mn
    Bit rate mode : Constant
    Bit rate : 448 Kbps
    Channel(s) : 6 channels
    Channel positions : Front: L C R, Side: L R, LFE
    Sampling rate : 48.0 KHz
    Compression mode : Lossy
    Stream size : 293 MiB (10%)
    Title : AC3 5.1 ~448 kbps
    Language : Russian
    Default : Yes
    Forced : No

    x264

    x264 [info]: frame I:1953 Avg QP:17.56 size: 81632
    x264 [info]: frame P:32391 Avg QP:18.96 size: 35067
    x264 [info]: frame B:102863 Avg QP:21.24 size: 13312
    x264 [info]: consecutive B-frames: 3.1% 3.1% 8.8% 33.0% 23.5% 21.7% 4.7% 0.7% 0.7% 0.3% 0.4%
    x264 [info]: mb I I16..4: 3.9% 78.5% 17.6%
    x264 [info]: mb P I16..4: 1.7% 18.3% 2.7% P16..4: 33.7% 25.2% 12.7% 0.0% 0.0% skip: 5.6%
    x264 [info]: mb B I16..4: 0.2% 2.1% 0.4% B16..8: 37.6% 12.6% 3.9% direct: 9.1% skip:34.1% L0:38.1% L1:42.6% BI:19.3%
    x264 [info]: 8x8 transform intra:79.6% inter:66.1%
    x264 [info]: coded y,uvDC,uvAC intra: 85.8% 89.5% 71.5% inter: 31.5% 34.9% 13.6%
    x264 [info]: i16 v,h,dc,p: 38% 18% 4% 40%
    x264 [info]: i8 v,h,dc,ddl,ddr,vr,hd,vl,hu: 17% 12% 7% 8% 11% 12% 11% 11% 12%
    x264 [info]: i4 v,h,dc,ddl,ddr,vr,hd,vl,hu: 18% 11% 4% 8% 13% 13% 12% 10% 11%
    x264 [info]: i8c dc,h,v,p: 39% 23% 20% 18%
    x264 [info]: Weighted P-Frames: Y:95.9% UV:1.1%
    x264 [info]: ref P L0: 49.3% 14.0% 17.1% 5.1% 4.3% 2.7% 2.4% 1.3% 1.2% 0.9% 0.9% 0.8% 0.1% 0.0%
    x264 [info]: ref B L0: 79.9% 9.6% 3.9% 2.0% 1.4% 1.1% 0.8% 0.5% 0.4% 0.3% 0.1%
    x264 [info]: ref B L1: 94.6% 5.4%
    x264 [info]: kb/s:3884.11

    Скриншоты

    с названием

    Скачать .torrent

    Скачать торрент-файл бесплатно и на максимальной скорости!

    Как скачивать? · Что такое торрент? · Рейтинг и ограничения

    !ВНИМАНИЕ!
    Сайт не распространяет и не хранит электронные версии произведений, а занимается лишь лишь предоставлением доступа к создаваемому пользователями каталогу ссылок на торрент-файлы, которые содержат только списки хеш-сумм, убедительная просьба с жалобами обращаться напрямую к пользователю. Файлы для обмена на трекере предоставлены пользователями сайта, и администрация не несёт ответственности за их содержание. Просьба не заливать файлы, защищенные авторскими правами, а также файлы нелегального содержания!


    _________________
    [Профиль] [ЛС]
    Показать сообщения:    
    Ответить на тему

    Текущее время: Сегодня, в 08:03

    Часовой пояс: GMT + 2



    Вы не можете начинать темы
    Вы не можете отвечать на сообщения
    Вы не можете редактировать свои сообщения
    Вы не можете удалять свои сообщения
    Вы не можете голосовать в опросах
    Вы не можете прикреплять файлы к сообщениям
    Вы не можете скачивать файлы