BitTorrentTracker PerecTracker.org
BitTorrentTracker PerecTracker.org
    
Регистрация  ·  Вход
 
 · 
Забыли пароль?

  • Восхождение Сокола / Falcon Rising (Эрни Барбараш / Ernie Barbarash) [2014, США, Приключения, боевик, драма, WEB-DLRip] VO

    Ответить на тему
     
    Автор Сообщение

    Light

    Создавать темы 21-Май-2016 02:47

           

    [Цитировать]

    Восхождение Сокола / Falcon Rising
    Страна: США
    Жанр: Приключения, боевик, драма
    Год выпуска: 2014
    Продолжительность: 01:40:58
    Перевод: Одноголосый закадровый
    Cубтитры: нет
    Режиссер: Эрни Барбараш / Ernie Barbarash
    В ролях: Майкл Джей Уайт, Лайла Али, Милли Руперто, Латиф Кроудер, Хазуки Като, Масаси Одате, Daniel Cardona, Жасмин Каратини, Джонни Янг, Нил МакДонаф
    Описание: Джон Чепмен, бывший морской пехотинец, который за время службы получил прозвище Сокол. После того как он продолжительное время находился в самом эпицентре военных действий, у него развилось разрушительное классическое чувство вины выжившего. Кроме того, он страдает от посттравматического стрессового расстройства, которое вот-вот уничтожит его как оружие. Пока герой борется с внутренними демонами, его сестра направлена по заданию в Бразилию. В Сан-Паулу с девушкой происходит трагический случай, на нее жестоко нападают. Чепмен тут же срывается с места и летит за границу, чтобы разыскать преступников и отплатить им по заслугам. Во время своего расследования Джон оказывается в захудалом районе города, где сталкивается с миром наркотиков, секс-торговли, коррумпированными полицейскими и организованным преступным синдикатом сражающимся за господство.
    Сэмпл: https://yadi.sk/i/CRzAVadPrrRFx
    Качество видео: WEB-DLRip
    Формат видео: AVI
    Видео: XviD 1.2.1, 720x384, (1,85:1), 23,976 fps, 1678 Кбит/с, 8 бит
    Аудио: Русский (AC-3, 6 ch (Front: L C R, Side: L R, LFE), 48,0 KHz, 384 Kbps)

    MediaInfo

    Общее
    Полное имя : F:\Видеофильмы\В и д е о\Восхождение сокола (боевик Майкл Джей Уайт 2014г).avi
    Формат : AVI
    Формат/Информация : Audio Video Interleave
    Размер файла : 1,46 Гбайт
    Продолжительность : 1 ч. 40 м.
    Общий поток : 2072 Кбит/сек
    Программа кодирования : VirtualDubMod 1.5.10.3 | www.virtualdub-fr.org || (build 2550/release)
    Библиотека кодирования : VirtualDubMod build 2550/release
    Видео
    Идентификатор : 0
    Формат : MPEG-4 Visual
    Профиль формата : Advanced Simple@L5
    Параметр BVOP формата : 2
    Параметр QPel формата : Нет
    Параметр GMC формата : Без точки перехода
    Параметр матрицы формата : Default (MPEG)
    Идентификатор кодека : XVID
    Идентификатор кодека/Подсказка : XviD
    Продолжительность : 1 ч. 40 м.
    Битрейт : 1678 Кбит/сек
    Ширина : 720 пикселей
    Высота : 384 пикселя
    Соотношение сторон : 1,85:1
    Частота кадров : 23,976 кадра/сек
    Цветовое пространство : YUV
    Субдискретизация насыщенности : 4:2:0
    Битовая глубина : 8 бит
    Тип развёртки : Прогрессивная
    Метод сжатия : С потерями
    Бит/(Пиксели*Кадры) : 0.253
    Размер потока : 1,18 Гбайт (81%)
    Библиотека кодирования : XviD 1.2.1 (UTC 2008-12-04)
    Аудио
    Идентификатор : 1
    Формат : AC-3
    Формат/Информация : Audio Coding 3
    Расширение режима : CM (complete main)
    Параметр Endianness формата : Big
    Идентификатор кодека : 2000
    Продолжительность : 1 ч. 40 м.
    Вид битрейта : Постоянный
    Битрейт : 384 Кбит/сек
    Каналы : 6 каналов
    Расположение каналов : Front: L C R, Side: L R, LFE
    Частота : 48,0 КГц
    Частота кадров : 31,250 кадров/сек (1536 spf)
    Метод сжатия : С потерями
    Размер потока : 277 Мбайт (19%)
    Выравнивание : Разделение по промежуткам
    Продолжительность промежутка : 42 мс. (1,00 видеокадр)
    Время предзагрузки промежутка : 500 мс.

    Скриншот c названием фильма

    Скриншоты

    Скачать .torrent

    Скачать торрент-файл бесплатно и на максимальной скорости!

    Как скачивать? · Что такое торрент? · Рейтинг и ограничения

    !ВНИМАНИЕ!
    Сайт не распространяет и не хранит электронные версии произведений, а занимается лишь лишь предоставлением доступа к создаваемому пользователями каталогу ссылок на торрент-файлы, которые содержат только списки хеш-сумм, убедительная просьба с жалобами обращаться напрямую к пользователю. Файлы для обмена на трекере предоставлены пользователями сайта, и администрация не несёт ответственности за их содержание. Просьба не заливать файлы, защищенные авторскими правами, а также файлы нелегального содержания!


    _________________
    [Профиль] [ЛС]
    Показать сообщения:    
    Ответить на тему

    Текущее время: Сегодня, в 21:59

    Часовой пояс: GMT + 2



    Вы не можете начинать темы
    Вы не можете отвечать на сообщения
    Вы не можете редактировать свои сообщения
    Вы не можете удалять свои сообщения
    Вы не можете голосовать в опросах
    Вы не можете прикреплять файлы к сообщениям
    Вы не можете скачивать файлы