BitTorrentTracker PerecTracker.org
BitTorrentTracker PerecTracker.org
    
Регистрация  ·  Вход
 
 · 
Забыли пароль?

  • Легенды: Гробница дракона / Legendary: Tomb of the Dragon (Эрик Стайлз / Eric Styles) [2013, Великобритания, Китай, Фантастика, боевик, приключения, HDRip] MVO

    Ответить на тему
     
    Автор Сообщение

    Light

    Создавать темы 21-Май-2016 02:47

           

    [Цитировать]

    Легенды: Гробница дракона / Legendary: Tomb of the Dragon
    Страна: Великобритания, Китай
    Жанр: Фантастика, боевик, приключения
    Год выпуска: 2013
    Продолжительность: 01:32:29
    Перевод: Профессиональный (многоголосый закадровый)
    Cубтитры: нет
    Режиссер: Эрик Стайлз / Eric Styles
    В ролях: Скотт Эдкинс, Дольф Лундгрен, И Хуан, Нэйтан Ли, Джеймс Лэнс, Лидия Леонард, Гэн Лэ, Мюррей Клайв Уокер, Виктор Собчак, Том Остин
    Описание: Команда исследователей путешествует по Китаю в поисках следов доисторических животных. Случайно они находят место, где огромных размеров монстры не просто хорошо сохранились, но и живут и охотятся как ни в чем не бывало. Радость от знакомства с находками портит охотник по имени Харкер, открывший стрельбу в самый неподходящий момент. Теперь людям предстоит противостоять разбушевавшимся монстрам и спасаться бегством.

    Бюджет: 12,000,000 $.

    Сэмпл: http://multi-up.com/1102274
    Качество видео: HDRip
    Формат видео: AVI
    Видео: XviD 1.2.1, 720x304, (2,35:1), 23,976 fps, 1914 Кбит/с, 8 бит
    Аудио: Русский (AC-3, 2 ch (Front: L R), 48,0 KHz, 192 Kbps)

    MediaInfo

    Общее
    Полное имя : F:\Видеофильмы\В и д е о\Легенды Гробница дракона (боевик Лунгрен Эдкинс 2013г).avi
    Формат : AVI
    Формат/Информация : Audio Video Interleave
    Размер файла : 1,37 Гбайт
    Продолжительность : 1 ч. 32 м.
    Общий поток : 2115 Кбит/сек
    Программа кодирования : VirtualDubMod 1.5.10.2 (build 2540/release)
    Библиотека кодирования : VirtualDubMod build 2540/release
    Видео
    Идентификатор : 0
    Формат : MPEG-4 Visual
    Профиль формата : Advanced Simple@L5
    Параметр BVOP формата : 2
    Параметр QPel формата : Нет
    Параметр GMC формата : Без точки перехода
    Параметр матрицы формата : Default (MPEG)
    Идентификатор кодека : XVID
    Идентификатор кодека/Подсказка : XviD
    Продолжительность : 1 ч. 32 м.
    Битрейт : 1914 Кбит/сек
    Ширина : 720 пикселей
    Высота : 304 пикселя
    Соотношение сторон : 2,35:1
    Частота кадров : 23,976 (23976/1000) кадра/сек
    Цветовое пространство : YUV
    Субдискретизация насыщенности : 4:2:0
    Битовая глубина : 8 бит
    Тип развёртки : Прогрессивная
    Метод сжатия : С потерями
    Бит/(Пиксели*Кадры) : 0.365
    Размер потока : 1,24 Гбайт (90%)
    Библиотека кодирования : XviD 1.2.1 (UTC 2008-12-04)
    Аудио
    Идентификатор : 1
    Формат : AC-3
    Формат/Информация : Audio Coding 3
    Расширение режима : CM (complete main)
    Параметр Endianness формата : Big
    Идентификатор кодека : 2000
    Продолжительность : 1 ч. 32 м.
    Вид битрейта : Постоянный
    Битрейт : 192 Кбит/сек
    Каналы : 2 канала
    Расположение каналов : Front: L R
    Частота : 48,0 КГц
    Частота кадров : 31,250 кадров/сек (1536 spf)
    Метод сжатия : С потерями
    Размер потока : 127 Мбайт (9%)
    Выравнивание : Разделение по промежуткам
    Продолжительность промежутка : 42 мс. (1,00 видеокадр)
    Время предзагрузки промежутка : 500 мс.

    Скриншот c названием фильма

    Скриншоты

    Скачать .torrent

    Скачать торрент-файл бесплатно и на максимальной скорости!

    Как скачивать? · Что такое торрент? · Рейтинг и ограничения

    !ВНИМАНИЕ!
    Сайт не распространяет и не хранит электронные версии произведений, а занимается лишь лишь предоставлением доступа к создаваемому пользователями каталогу ссылок на торрент-файлы, которые содержат только списки хеш-сумм, убедительная просьба с жалобами обращаться напрямую к пользователю. Файлы для обмена на трекере предоставлены пользователями сайта, и администрация не несёт ответственности за их содержание. Просьба не заливать файлы, защищенные авторскими правами, а также файлы нелегального содержания!


    _________________
    [Профиль] [ЛС]
    Показать сообщения:    
    Ответить на тему

    Текущее время: Сегодня, в 22:17

    Часовой пояс: GMT + 2



    Вы не можете начинать темы
    Вы не можете отвечать на сообщения
    Вы не можете редактировать свои сообщения
    Вы не можете удалять свои сообщения
    Вы не можете голосовать в опросах
    Вы не можете прикреплять файлы к сообщениям
    Вы не можете скачивать файлы