BitTorrentTracker PerecTracker.org
BitTorrentTracker PerecTracker.org
    
Регистрация  ·  Вход
 
 · 
Забыли пароль?

  • Три девятки / Triple 9 (Джон Хиллкоут / John Hillcoat) [2016, США, криминал, драма, триллер, BDRip-AVC] Dub + Original + Sub (rus, eng)

    Ответить на тему
     
    Автор Сообщение

    rechyn

    Создавать темы 20-Май-2016 06:22

           

    [Цитировать]

    Три девятки / Triple 9«Законы улицы не делятся на черные и белые»-Страна: США
    Жанр: криминал, драма, триллер
    Год выпуска: 2016
    Продолжительность: 01:55:45
    Перевод: Профессиональный (полное дублирование) (iTunes)
    Оригинальная аудиодорожка: английский
    Cубтитры: русские (полные), английские (полные, SDH)
    Навигация по главам: есть
    Режиссер: Джон Хиллкоут / John Hillcoat
    В ролях: Чиветель Эджиофор, Кейси Аффлек, Энтони Маки, Вуди Харрельсон, Кейт Уинслет, Аарон Пол, Клифтон Коллинз мл., Норман Ридус, Галь Гадот, Тереза Палмер, Майкл Кеннет Уильямс, Мишель Энг
    Описание: Банда преступников и коррумпированных копов планирует убить полицейского, чтобы провернуть ограбление на другом конце города.

    Качество видео: BDRip-AVC (исходник - BDRemux|TRIPLE_9_REMUX_HDCLUB)
    Формат видео: MKV
    Видео: x264, 1056х442 (2.40:1), 23,976 fps, ~2820 kbps, 0.252 bit/pixel
    Аудио 1: 48 kHz, AC3 Dolby Digital, 3/2 (L,C,R,l,r) + LFE ch, ~384 kbps [русский]
    Аудио 2: 48 kHz, AC3 Dolby Digital, 3/2 (L,C,R,l,r) + LFE ch, ~384 kbps [английский]
    Формат субтитров: softsub (SRT)
    MediaInfo | x264 log
    Format : Matroska
    Format version : Version 4 / Version 2
    File size : 2.90 GiB
    Duration : 1h 55mn
    Overall bit rate : 3 588 Kbps
    Movie name : Три девятки / Triple 9 (2016) :: AFM ::
    Encoded date : UTC 2016-05-19 16:51:00
    Writing application : mkvmerge v8.3.0 ('Over the Horizon') 32bit
    Writing library : libebml v1.3.1 + libmatroska v1.4.2
    Video
    ID : 1
    Format : AVC
    Format/Info : Advanced Video Codec
    Format profile : High@L4.1
    Format settings, CABAC : Yes
    Format settings, ReFrames : 11 frames
    Codec ID : V_MPEG4/ISO/AVC
    Duration : 1h 55mn
    Bit rate : 2 820 Kbps
    Width : 1 056 pixels
    Height : 442 pixels
    Display aspect ratio : 2.40:1
    Frame rate mode : Constant
    Frame rate : 23.976 fps
    Color space : YUV
    Chroma subsampling : 4:2:0
    Bit depth : 8 bits
    Scan type : Progressive
    Bits/(Pixel*Frame) : 0.252
    Stream size : 2.22 GiB (77%)
    Title : BDRip by AFM [RuTracker.org]
    Writing library : x264 core 148 r2665+53 6629127 t_mod_Custom [8-bit@all X86_64]
    Encoding settings : cabac=1 / ref=11 / deblock=1:-3:-2 / analyse=0x3:0x113 / me=umh / subme=10 / psy=1 / fade_compensate=0.00 / psy_rd=0.95:0.00 / mixed_ref=1 / me_range=32 / chroma_me=1 / trellis=2 / 8x8dct=1 / cqm=0 / deadzone=21,11 / fast_pskip=0 / chroma_qp_offset=-2 / threads=6 / lookahead_threads=1 / sliced_threads=0 / nr=0 / decimate=0 / interlaced=0 / bluray_compat=0 / constrained_intra=0 / fgo=0 / bframes=15 / b_pyramid=2 / b_adapt=2 / b_bias=0 / direct=3 / weightb=1 / open_gop=0 / weightp=2 / keyint=250 / keyint_min=23 / scenecut=40 / intra_refresh=0 / rc_lookahead=40 / rc=2pass / mbtree=0 / bitrate=2820 / ratetol=1.0 / qcomp=0.65 / qpmin=0:0:0 / qpmax=69:69:69 / qpstep=4 / cplxblur=20.0 / qblur=0.5 / vbv_maxrate=50000 / vbv_bufsize=62500 / nal_hrd=none / filler=0 / ip_ratio=1.35 / pb_ratio=1.27 / aq=1:0.80 / aq-sensitivity=10.00 / aq-factor=1.00:1.00:1.00 / aq2=0 / aq3=0 / zones=158500,166535,q=30
    Language : English
    Default : Yes
    Forced : No
    Audio #1
    ID : 2
    Format : AC-3
    Format/Info : Audio Coding 3
    Mode extension : CM (complete main)
    Format settings, Endianness : Big
    Codec ID : A_AC3
    Duration : 1h 55mn
    Bit rate mode : Constant
    Bit rate : 384 Kbps
    Channel(s) : 6 channels
    Channel positions : Front: L C R, Side: L R, LFE
    Sampling rate : 48.0 KHz
    Compression mode : Lossy
    Stream size : 318 MiB (11%)
    Title : Dub, AC3 5.1 ~384 kbps
    Language : Russian
    Default : Yes
    Forced : No
    Audio #2
    ID : 3
    Format : AC-3
    Format/Info : Audio Coding 3
    Mode extension : CM (complete main)
    Format settings, Endianness : Big
    Codec ID : A_AC3
    Duration : 1h 55mn
    Bit rate mode : Constant
    Bit rate : 384 Kbps
    Channel(s) : 6 channels
    Channel positions : Front: L C R, Side: L R, LFE
    Sampling rate : 48.0 KHz
    Compression mode : Lossy
    Stream size : 318 MiB (11%)
    Title : Original, AC3 5.1 ~384 kbps
    Language : English
    Default : No
    Forced : No
    Text #1
    ID : 4
    Format : UTF-8
    Codec ID : S_TEXT/UTF8
    Codec ID/Info : UTF-8 Plain Text
    Language : Russian
    Default : No
    Forced : No
    Text #2
    ID : 5
    Format : UTF-8
    Codec ID : S_TEXT/UTF8
    Codec ID/Info : UTF-8 Plain Text
    Language : English
    Default : No
    Forced : No
    Text #3
    ID : 6
    Format : UTF-8
    Codec ID : S_TEXT/UTF8
    Codec ID/Info : UTF-8 Plain Text
    Title : SDH
    Language : English
    Default : No
    Forced : No
    Menu
    00:00:00.000 : en:Chapter 01
    00:05:34.459 : en:Chapter 02
    00:12:18.029 : en:Chapter 03
    00:15:57.039 : en:Chapter 04
    00:20:25.724 : en:Chapter 05
    00:28:39.468 : en:Chapter 06
    00:34:28.942 : en:Chapter 07
    00:39:29.576 : en:Chapter 08
    00:44:32.879 : en:Chapter 09
    00:48:10.888 : en:Chapter 10
    00:56:32.639 : en:Chapter 11
    01:02:03.178 : en:Chapter 12
    01:07:03.019 : en:Chapter 13
    01:12:12.620 : en:Chapter 14
    01:16:22.495 : en:Chapter 15
    01:21:41.647 : en:Chapter 16
    01:26:30.102 : en:Chapter 17
    01:32:35.675 : en:Chapter 18
    01:41:34.255 : en:Chapter 19
    01:50:13.315 : en:Chapter 20

    x264

    x264 [info]: frame I:1020 Avg QP:17.00 size: 74320
    x264 [info]: frame P:32952 Avg QP:20.37 size: 26534
    x264 [info]: frame B:132563 Avg QP:21.26 size: 11286
    x264 [info]: consecutive B-frames: 2.3% 2.7% 6.3% 10.9% 13.2% 40.8% 6.5% 2.8% 1.8% 1.2% 2.3% 2.8% 3.0% 2.1% 0.9% 0.4%
    x264 [info]: mb I I16..4: 3.4% 86.0% 10.6%
    x264 [info]: mb P I16..4: 0.5% 12.1% 0.9% P16..4: 35.1% 28.2% 17.8% 0.0% 0.0% skip: 5.3%
    x264 [info]: mb B I16..4: 0.0% 0.7% 0.1% B16..8: 45.8% 15.6% 5.0% direct: 6.9% skip:25.9% L0:48.6% L1:45.5% BI: 6.0%
    x264 [info]: 8x8 transform intra:89.0% inter:61.1%
    x264 [info]: direct mvs spatial:97.9% temporal:2.1%
    x264 [info]: coded y,uvDC,uvAC intra: 95.3% 91.3% 75.5% inter: 38.1% 30.2% 10.5%
    x264 [info]: i16 v,h,dc,p: 28% 21% 12% 39%
    x264 [info]: i8 v,h,dc,ddl,ddr,vr,hd,vl,hu: 8% 8% 8% 10% 15% 14% 14% 11% 12%
    x264 [info]: i4 v,h,dc,ddl,ddr,vr,hd,vl,hu: 10% 7% 3% 10% 16% 15% 15% 11% 12%
    x264 [info]: i8c dc,h,v,p: 48% 19% 16% 17%
    x264 [info]: Weighted P-Frames: Y:98.0% UV:1.6%
    x264 [info]: ref P L0: 39.5% 8.3% 19.3% 7.6% 6.8% 4.7% 4.6% 2.5% 2.5% 2.0% 2.0% 0.4% 0.0%
    x264 [info]: ref B L0: 57.8% 15.9% 9.1% 5.1% 3.7% 3.1% 2.5% 1.6% 0.9% 0.3%
    x264 [info]: ref B L1: 88.4% 11.6%
    x264 [info]: kb/s:2817.54

    Скриншоты

    с названием

    Скачать .torrent

    Скачать торрент-файл бесплатно и на максимальной скорости!

    Как скачивать? · Что такое торрент? · Рейтинг и ограничения

    !ВНИМАНИЕ!
    Сайт не распространяет и не хранит электронные версии произведений, а занимается лишь лишь предоставлением доступа к создаваемому пользователями каталогу ссылок на торрент-файлы, которые содержат только списки хеш-сумм, убедительная просьба с жалобами обращаться напрямую к пользователю. Файлы для обмена на трекере предоставлены пользователями сайта, и администрация не несёт ответственности за их содержание. Просьба не заливать файлы, защищенные авторскими правами, а также файлы нелегального содержания!


    _________________
    [Профиль] [ЛС]
    Показать сообщения:    
    Ответить на тему

    Текущее время: Сегодня, в 17:23

    Часовой пояс: GMT + 2



    Вы не можете начинать темы
    Вы не можете отвечать на сообщения
    Вы не можете редактировать свои сообщения
    Вы не можете удалять свои сообщения
    Вы не можете голосовать в опросах
    Вы не можете прикреплять файлы к сообщениям
    Вы не можете скачивать файлы