BitTorrentTracker PerecTracker.org
BitTorrentTracker PerecTracker.org
    
Регистрация  ·  Вход
 
 · 
Забыли пароль?

  • Человек-муравей / Ant-Man (Пейтон Рид / Peyton Reed) [2015, США, Фантастика, боевик, комедия, приключения, BDRip-AVC] AVO (Гаврилов) + Sub Rus Eng + Original Eng

    Ответить на тему
     
    Автор Сообщение

    Light

    Создавать темы 20-Май-2016 06:22

           

    [Цитировать]

    Человек-муравей / Ant-Man
    Страна: США
    Жанр: Фантастика, боевик, комедия, приключения
    Год выпуска: 2015
    Продолжительность: 01:57:06
    Перевод: Авторский (одноголосый закадровый) А. Гаврилов
    Cубтитры: русские, английские
    Оригинальная аудиодорожка: английский
    Режиссер: Пейтон Рид / Peyton Reed
    В ролях: Пол Радд, Майкл Дуглас, Эванджелин Лилли, Кори Столл, Майкл Пенья, Бобби Каннавале, Ти-Ай, Давид Дастмалчян, Эбби Райдер Фортсон, Джуди Грир
    Описание: Вооружившись удивительной способностью уменьшаться в размере, но обладать при этом большой силой, мошенник Скотт Лэнг должен стать героем и помочь своему наставнику, доктору Хэнку Пиму, сохранить в тайне существование костюма Человека-муравья от угроз нового поколения.
    Сэмпл: https://www.sendspace.com/file/b1vlb1
    Качество видео: BDRip-AVC Исходник
    Формат видео: MKV
    Видео: MPEG-4 AVC/H.264 / 2660 kbps / 1112x600 / 23.976 fps
    Аудио: AVO Гаврилов (Rus) / AC3 / 6 ch / 448 kbps / 48 kHz
    Аудио 2: Original (Eng) / AC3 / 6 ch / 448 kbps / 48 kHz
    Формат субтитров: softsub (SRT)
    Доп. информация о субтитрах: Русские (full), Английские (2x full)
    #Сохранены оригинальные чаптеры как на Blu-ray

    MediaInfo

    General
    Unique ID : 185221040838722535755637070932592469661 (0x8B58465F127BDCAA83A4C559B832A69D)
    Complete name : J:\Torrents\Человек-муравей (2015) BDRip-AVC.mkv
    Format : Matroska
    Format version : Version 2
    File size : 2.91 GiB
    Duration : 1h 57mn
    Overall bit rate : 3 558 Kbps
    Movie name : Человек-муравей / Ant-Man (2015)
    Encoded date : UTC 2016-04-30 16:29:24
    Writing application : mkvmerge v5.5.0 ('Healer') built on Apr 24 2012 23:47:03
    Writing library : libebml v1.2.3 + libmatroska v1.3.0
    Video
    ID : 1
    Format : AVC
    Format/Info : Advanced Video Codec
    Format profile : High@L4.1
    Format settings, CABAC : Yes
    Format settings, ReFrames : 10 frames
    Codec ID : V_MPEG4/ISO/AVC
    Duration : 1h 57mn
    Bit rate : 2 660 Kbps
    Width : 1 112 pixels
    Height : 600 pixels
    Display aspect ratio : 1.85:1
    Frame rate mode : Constant
    Frame rate : 23.976 (24000/1001) fps
    Color space : YUV
    Chroma subsampling : 4:2:0
    Bit depth : 8 bits
    Scan type : Progressive
    Bits/(Pixel*Frame) : 0.166
    Stream size : 2.12 GiB (73%)
    Title : BDRip (AVC) / MPEG-4 AVC/H.264 / 2660 kbps / 1112x600 / 23.976 fps
    Writing library : x264 core 148 r2638M 7599210
    Encoding settings : cabac=1 / ref=10 / deblock=1:-2:-2 / analyse=0x3:0x133 / me=esa / subme=11 / psy=1 / psy_rd=1.00:0.10 / mixed_ref=1 / me_range=48 / chroma_me=1 / trellis=2 / 8x8dct=1 / cqm=0 / deadzone=21,11 / fast_pskip=0 / chroma_qp_offset=-3 / threads=10 / lookahead_threads=2 / sliced_threads=0 / nr=0 / decimate=1 / interlaced=0 / bluray_compat=0 / constrained_intra=0 / bframes=11 / b_pyramid=2 / b_adapt=2 / b_bias=0 / direct=3 / weightb=1 / open_gop=0 / weightp=2 / keyint=250 / keyint_min=23 / scenecut=40 / intra_refresh=0 / rc=2pass / mbtree=0 / bitrate=2660 / ratetol=1.0 / qcomp=0.70 / qpmin=0 / qpmax=69 / qpstep=4 / cplxblur=20.0 / qblur=0.5 / ip_ratio=1.40 / pb_ratio=1.30 / aq=1:0.80
    Language : English
    Default : Yes
    Forced : Yes
    Audio #1
    ID : 2
    Format : AC-3
    Format/Info : Audio Coding 3
    Mode extension : CM (complete main)
    Format settings, Endianness : Big
    Codec ID : A_AC3
    Duration : 1h 57mn
    Bit rate mode : Constant
    Bit rate : 448 Kbps
    Channel(s) : 6 channels
    Channel positions : Front: L C R, Side: L R, LFE
    Sampling rate : 48.0 KHz
    Frame rate : 31.250 fps (1536 spf)
    Compression mode : Lossy
    Stream size : 375 MiB (13%)
    Title : AVO Гаврилов (Rus) / AC3 / 6 ch / 448 kbps / 48 kHz
    Language : Russian
    Default : Yes
    Forced : Yes
    Audio #2
    ID : 3
    Format : AC-3
    Format/Info : Audio Coding 3
    Mode extension : CM (complete main)
    Format settings, Endianness : Big
    Codec ID : A_AC3
    Duration : 1h 57mn
    Bit rate mode : Constant
    Bit rate : 448 Kbps
    Channel(s) : 6 channels
    Channel positions : Front: L C R, Side: L R, LFE
    Sampling rate : 48.0 KHz
    Frame rate : 31.250 fps (1536 spf)
    Compression mode : Lossy
    Stream size : 375 MiB (13%)
    Title : Original (Eng) / AC3 / 6 ch / 448 kbps / 48 kHz
    Language : English
    Default : No
    Forced : No
    Text #1
    ID : 4
    Format : UTF-8
    Codec ID : S_TEXT/UTF8
    Codec ID/Info : UTF-8 Plain Text
    Title : Full (Rus) / S_TEXT/UTF8
    Language : Russian
    Default : No
    Forced : No
    Text #2
    ID : 5
    Format : UTF-8
    Codec ID : S_TEXT/UTF8
    Codec ID/Info : UTF-8 Plain Text
    Title : Full (Eng) / S_TEXT/UTF8
    Language : English
    Default : No
    Forced : No
    Text #3
    ID : 6
    Format : UTF-8
    Codec ID : S_TEXT/UTF8
    Codec ID/Info : UTF-8 Plain Text
    Title : Full [SDH] (Eng) / S_TEXT/UTF8
    Language : English
    Default : No
    Forced : No
    Menu
    00:00:00.000 : en:(01)00:00:00:000
    00:02:08.837 : en:(02)00:02:08:837
    00:08:40.186 : en:(03)00:08:40:186
    00:15:24.840 : en:(04)00:15:24:840
    00:19:59.740 : en:(05)00:19:59:740
    00:27:50.210 : en:(06)00:27:50:210
    00:33:07.235 : en:(07)00:33:07:235
    00:38:53.956 : en:(08)00:38:53:956
    00:44:36.465 : en:(09)00:44:36:465
    00:49:22.459 : en:(10)00:49:22:459
    00:57:44.252 : en:(11)00:57:44:252
    01:00:48.811 : en:(12)01:00:48:811
    01:06:31.529 : en:(13)01:06:31:529
    01:23:21.287 : en:(14)01:23:21:287
    01:34:20.529 : en:(15)01:34:20:529
    01:47:34.239 : en:(16)01:47:34:239

    Скриншот c названием фильма

    Скриншоты

    Скачать .torrent

    Скачать торрент-файл бесплатно и на максимальной скорости!

    Как скачивать? · Что такое торрент? · Рейтинг и ограничения

    !ВНИМАНИЕ!
    Сайт не распространяет и не хранит электронные версии произведений, а занимается лишь лишь предоставлением доступа к создаваемому пользователями каталогу ссылок на торрент-файлы, которые содержат только списки хеш-сумм, убедительная просьба с жалобами обращаться напрямую к пользователю. Файлы для обмена на трекере предоставлены пользователями сайта, и администрация не несёт ответственности за их содержание. Просьба не заливать файлы, защищенные авторскими правами, а также файлы нелегального содержания!


    _________________
    [Профиль] [ЛС]
    Показать сообщения:    
    Ответить на тему

    Текущее время: Сегодня, в 08:15

    Часовой пояс: GMT + 2



    Вы не можете начинать темы
    Вы не можете отвечать на сообщения
    Вы не можете редактировать свои сообщения
    Вы не можете удалять свои сообщения
    Вы не можете голосовать в опросах
    Вы не можете прикреплять файлы к сообщениям
    Вы не можете скачивать файлы