BitTorrentTracker PerecTracker.org
BitTorrentTracker PerecTracker.org
    
Регистрация  ·  Вход
 
 · 
Забыли пароль?

  • Три девятки / Triple 9 (Джон Хиллкоут / John Hillcoat) [2016, США, криминал, драма, триллер, BDRip-AVC] Dub + Sub (eng)

    Ответить на тему
     
    Автор Сообщение

    rechyn

    Создавать темы 19-Май-2016 22:10

           

    [Цитировать]

    Три девятки
    Triple 9
    «Законы улицы не делятся на черные и белые»

    Страна: США
    Жанр: криминал, драма, триллер
    Год выпуска: 2016
    Продолжительность: 01:55:45
    Перевод: Профессиональный (полное дублирование) [Лицензия iTunes]
    Cубтитры: английские (полные, SDH)
    Оригинальная аудиодорожка: нет
    Режиссер: Джон Хиллкоут / John Hillcoat
    В ролях: Чиветель Эджиофор, Кейси Аффлек, Энтони Маки, Вуди Харрельсон, Кейт Уинслет, Аарон Пол, Клифтон Коллинз мл., Норман Ридус, Галь Гадот, Тереза Палмер, Майкл Кеннет Уильямс, Мишель Энг
    Описание:
    Банда преступников и коррумпированных копов планирует убить полицейского, чтобы провернуть ограбление на другом конце города.
    Автор рипа: stalkerok
    Сэмпл
    Качество видео: BDRip-AVC [Triple.9.2016.COMPLETE.BLURAY-HDCLUB]
    Формат видео: MKV
    Видео кодек: AVC
    Аудио кодек: AC3
    Видео: 1417 Кбит/сек, 936x392 (2.40:1), 23,976 кадр/сек, AVC
    Аудио: русский, 384 Кбит/сек, 48 КГц, 16 бит, 5.1, AC3
    Навигация по главам: есть

    MediaInfo

    Общее
    Уникальный идентификатор : 218083985071760465404237319441125012806 (0xA411729E0BF02A35AB016D3C54FCF546)
    Полное имя : M:\1Rips\Triple 9\Triple.9.2016.BDRip-AVC.Dub.1.45Gb.stalkerok.new-team.mkv
    Формат : Matroska
    Версия формата : Version 4 / Version 2
    Размер файла : 1,46 Гбайт
    Продолжительность : 1 ч. 55 м.
    Общий поток : 1803 Кбит/сек
    Название фильма : Triple 9 (2016) (New-Team) (Rip by stalkerok)
    Дата кодирования : UTC 2016-05-19 13:21:13
    Программа кодирования : mkvmerge v8.6.1 ('Flying') 64bit
    Библиотека кодирования : libebml v1.3.3 + libmatroska v1.4.4
    Видео
    Идентификатор : 1
    Формат : AVC
    Формат/Информация : Advanced Video Codec
    Профиль формата : High@L4.1
    Параметр CABAC формата : Да
    Параметр ReFrames формата : 14 кадров
    Идентификатор кодека : V_MPEG4/ISO/AVC
    Продолжительность : 1 ч. 55 м.
    Битрейт : 1417 Кбит/сек
    Ширина : 936 пикселей
    Высота : 392 пикселя
    Соотношение сторон : 2,40:1
    Режим частоты кадров : Постоянный
    Частота кадров : 23,976 (24000/1001) кадра/сек
    Цветовое пространство : YUV
    Субдискретизация насыщенности : 4:2:0
    Битовая глубина : 8 бит
    Тип развёртки : Прогрессивная
    Бит/(Пиксели*Кадры) : 0.161
    Размер потока : 1,15 Гбайт (79%)
    Заголовок : Triple 9 (2016) (New-Team) (Rip by stalkerok)
    Библиотека кодирования : x264 core 148 r2665kMod a01e339
    Настройки программы : cabac=1 / ref=14 / deblock=1:-3:-2 / analyse=0x3:0x133 / me=umh / subme=10 / psy=1 / fade_compensate=0.00 / psy_rd=1.00:0.00 / mixed_ref=1 / me_range=32 / chroma_me=1 / trellis=2 / 8x8dct=1 / cqm=0 / deadzone=21,11 / fast_pskip=0 / chroma_qp_offset=-2 / threads=12 / lookahead_threads=3 / sliced_threads=0 / nr=0 / decimate=0 / interlaced=0 / bluray_compat=0 / constrained_intra=0 / fgo=0 / bframes=14 / b_pyramid=2 / b_adapt=2 / b_bias=0 / direct=3 / weightb=1 / open_gop=0 / weightp=2 / keyint=240 / keyint_min=23 / scenecut=40 / intra_refresh=0 / rc_lookahead=60 / rc=2pass / mbtree=0 / bitrate=1417 / ratetol=1.0 / qcomp=0.65 / qpmin=0 / qpmax=69 / qpstep=4 / cplxblur=20.0 / qblur=0.5 / vbv_maxrate=50000 / vbv_bufsize=62500 / nal_hrd=none / filler=0 / ip_ratio=1.30 / pb_ratio=1.25 / aq=1:0.85
    Default : Да
    Forced : Нет
    Аудио
    Идентификатор : 2
    Формат : AC-3
    Формат/Информация : Audio Coding 3
    Расширение режима : CM (complete main)
    Параметр Endianness формата : Big
    Идентификатор кодека : A_AC3
    Продолжительность : 1 ч. 55 м.
    Вид битрейта : Постоянный
    Битрейт : 384 Кбит/сек
    Каналы : 6 каналов
    Расположение каналов : Front: L C R, Side: L R, LFE
    Частота : 48,0 КГц
    Частота кадров : 31,250 кадров/сек (1536 spf)
    Метод сжатия : С потерями
    Размер потока : 318 Мбайт (21%)
    Язык : Russian
    Default : Да
    Forced : Нет
    Текст #1
    Идентификатор : 3
    Формат : UTF-8
    Идентификатор кодека : S_TEXT/UTF8
    Идентификатор кодека/Информация : UTF-8 Plain Text
    Продолжительность : 1 ч. 48 м.
    Битрейт : 52 бит/сек
    Count of elements : 1403
    Размер потока : 41,6 Кбайт (0%)
    Язык : English
    Default : Нет
    Forced : Нет
    Текст #2
    Идентификатор : 4
    Формат : UTF-8
    Идентификатор кодека : S_TEXT/UTF8
    Идентификатор кодека/Информация : UTF-8 Plain Text
    Продолжительность : 1 ч. 49 м.
    Битрейт : 60 бит/сек
    Count of elements : 1650
    Размер потока : 48,4 Кбайт (0%)
    Заголовок : SDH
    Язык : English
    Default : Нет
    Forced : Нет
    Меню
    00:00:00.000 : en:Chapter 1
    00:05:34.459 : en:Chapter 2
    00:12:18.028 : en:Chapter 3
    00:15:57.038 : en:Chapter 4
    00:20:25.723 : en:Chapter 5
    00:28:39.467 : en:Chapter 6
    00:34:28.940 : en:Chapter 7
    00:39:29.574 : en:Chapter 8
    00:44:32.878 : en:Chapter 9
    00:48:10.887 : en:Chapter 10
    00:56:32.639 : en:Chapter 11
    01:02:03.177 : en:Chapter 12
    01:07:03.018 : en:Chapter 13
    01:12:12.618 : en:Chapter 14
    01:16:22.493 : en:Chapter 15
    01:21:41.645 : en:Chapter 16
    01:26:30.100 : en:Chapter 17
    01:32:35.675 : en:Chapter 18
    01:41:34.253 : en:Chapter 19
    01:50:13.314 : en:Chapter 20

    Скриншоты

    Скачать .torrent

    Скачать торрент-файл бесплатно и на максимальной скорости!

    Как скачивать? · Что такое торрент? · Рейтинг и ограничения

    !ВНИМАНИЕ!
    Сайт не распространяет и не хранит электронные версии произведений, а занимается лишь лишь предоставлением доступа к создаваемому пользователями каталогу ссылок на торрент-файлы, которые содержат только списки хеш-сумм, убедительная просьба с жалобами обращаться напрямую к пользователю. Файлы для обмена на трекере предоставлены пользователями сайта, и администрация не несёт ответственности за их содержание. Просьба не заливать файлы, защищенные авторскими правами, а также файлы нелегального содержания!


    _________________
    [Профиль] [ЛС]
    Показать сообщения:    
    Ответить на тему

    Текущее время: Сегодня, в 00:21

    Часовой пояс: GMT + 2



    Вы не можете начинать темы
    Вы не можете отвечать на сообщения
    Вы не можете редактировать свои сообщения
    Вы не можете удалять свои сообщения
    Вы не можете голосовать в опросах
    Вы не можете прикреплять файлы к сообщениям
    Вы не можете скачивать файлы