BitTorrentTracker PerecTracker.org
BitTorrentTracker PerecTracker.org
    
Регистрация  ·  Вход
 
 · 
Забыли пароль?

  • Подводное течение / Undertow (Дэвид Гордон Грин / David Gordon Green) [2004, США, триллер, драма, BDRip 1080p] DVO + Sub Eng + Original Eng

    Ответить на тему
     
    Автор Сообщение

    Light

    Создавать темы 19-Май-2016 18:05

           

    [Цитировать]

    Подводное течение / Undertow
    Страна: США
    Студия: United Artists, Muskat Filmed Properties, Sunflower Productions
    Жанр: триллер, драма
    Год выпуска: 2004
    Продолжительность: 01:47:59
    Перевод: Профессиональный (двухголосый закадровый)
    Cубтитры: английские
    Оригинальная аудиодорожка: английский
    Режиссер: Дэвид Гордон Грин / David Gordon Green
    В ролях: Джейми Белл, Девон Алан, Джош Лукас, Дермот Малруни, Шири Эпплби, Эдди Роус, Патрис Джонсон, Пэт Хили, Кристен Стюарт, Билл МакКинни
    Описание: Джон Манн живет со своими сыновьями Крисом и Тимом в деревушке в лесах Джорджии. Старший, Крис, строит репутацию нарушителя спокойствия; младший, Тим, является случайным ребенком, который ест грязь и краску и объясняет, что он «выкладывает книги по тому, как они пахнут».
    Их отец Джон оплакивает свою мертвую жену и держит мальчиков изолированными от других людей. С появлением Дила Манна, брата Джона, только что вышедшего из тюрьмы, спокойной жизни Тима и Криса приходит конец...- -Сэмпл: http://sendfile.su/1234790
    Тип релиза: BDRip 1080p [VietHD]
    Контейнер: MKV
    Видео: h.264, 1920x1040, 23.976 fps, 13900 kbps
    Аудио #1: Russian: AC3 2.0, 48 kHz, 192 kbps avg |Многоголосый закадровый|
    Аудио #2: English: DTS 2.0, 48 kHz/24-bit, 1536 kbps avg |Оригинал|
    Формат субтитров: softsub (SRT)

    MediaInfo

    Complete name : D:\Принятые\Undertow.2004.1080p.BluRay.Rus.Eng.HDCLUB.mkv
    Format : Matroska
    Format version : Version 2
    File size : 12.0 GiB
    Duration : 1h 48mn
    Overall bit rate : 16.0 Mbps
    Movie name : Undertow (2004) - Release for HDCLUB
    Encoded date : UTC 2016-05-14 15:47:54
    Writing application : mkvmerge v5.7.0 ('The Whirlwind') built on Jul 8 2012 20:08:51
    Writing library : libebml v1.2.3 + libmatroska v1.3.0
    Video
    ID : 1
    Format : AVC
    Format/Info : Advanced Video Codec
    Format profile : High@L4.1
    Format settings, CABAC : Yes
    Format settings, ReFrames : 4 frames
    Codec ID : V_MPEG4/ISO/AVC
    Duration : 1h 48mn
    Bit rate : 13.9 Mbps
    Width : 1 920 pixels
    Height : 1 040 pixels
    Display aspect ratio : 1.85:1
    Frame rate mode : Constant
    Frame rate : 23.976 (24000/1001) fps
    Color space : YUV
    Chroma subsampling : 4:2:0
    Bit depth : 8 bits
    Scan type : Progressive
    Bits/(Pixel*Frame) : 0.291
    Stream size : 10.5 GiB (87%)
    Writing library : x264 core 148 r2665kMod a01e339
    Encoding settings : cabac=1 / ref=4 / deblock=1:-3:-3 / analyse=0x3:0x133 / me=umh / subme=10 / psy=1 / fade_compensate=0.00 / psy_rd=1.10:0.00 / mixed_ref=1 / me_range=24 / chroma_me=1 / trellis=2 / 8x8dct=1 / cqm=0 / deadzone=21,11 / fast_pskip=0 / chroma_qp_offset=-2 / threads=12 / lookahead_threads=2 / sliced_threads=0 / nr=0 / decimate=0 / interlaced=0 / bluray_compat=0 / constrained_intra=0 / fgo=0 / bframes=7 / b_pyramid=2 / b_adapt=2 / b_bias=0 / direct=3 / weightb=1 / open_gop=0 / weightp=2 / keyint=250 / keyint_min=23 / scenecut=40 / intra_refresh=0 / rc_lookahead=60 / rc=crf / mbtree=0 / crf=19.8000 / qcomp=0.65 / qpmin=0 / qpmax=69 / qpstep=4 / vbv_maxrate=62500 / vbv_bufsize=78125 / crf_max=0.0 / nal_hrd=none / filler=0 / ip_ratio=1.30 / pb_ratio=1.20 / aq=3:0.70
    Language : English
    Default : No
    Forced : No
    Color range : Limited
    Matrix coefficients : BT.709
    Audio #1
    ID : 2
    Format : AC-3
    Format/Info : Audio Coding 3
    Mode extension : CM (complete main)
    Format settings, Endianness : Big
    Codec ID : A_AC3
    Duration : 1h 48mn
    Bit rate mode : Constant
    Bit rate : 192 Kbps
    Channel(s) : 2 channels
    Channel positions : Front: L R
    Sampling rate : 48.0 KHz
    Frame rate : 31.250 fps (1536 spf)
    Compression mode : Lossy
    Stream size : 148 MiB (1%)
    Language : Russian
    Default : Yes
    Forced : No
    Audio #2
    ID : 3
    Format : DTS
    Format/Info : Digital Theater Systems
    Mode : 16
    Format settings, Endianness : Big
    Codec ID : A_DTS
    Duration : 1h 48mn
    Bit rate mode : Constant
    Bit rate : 1 509 Kbps
    Channel(s) : 2 channels
    Channel positions : Front: L R
    Sampling rate : 48.0 KHz
    Frame rate : 93.750 fps (512 spf)
    Bit depth : 24 bits
    Compression mode : Lossy
    Stream size : 1.14 GiB (9%)
    Language : English
    Default : No
    Forced : No
    Text
    ID : 4
    Format : UTF-8
    Codec ID : S_TEXT/UTF8
    Codec ID/Info : UTF-8 Plain Text
    Language : English
    Default : No
    Forced : No

    Source vs Encode



    Скриншоты

    Скачать .torrent

    Скачать торрент-файл бесплатно и на максимальной скорости!

    Как скачивать? · Что такое торрент? · Рейтинг и ограничения

    !ВНИМАНИЕ!
    Сайт не распространяет и не хранит электронные версии произведений, а занимается лишь лишь предоставлением доступа к создаваемому пользователями каталогу ссылок на торрент-файлы, которые содержат только списки хеш-сумм, убедительная просьба с жалобами обращаться напрямую к пользователю. Файлы для обмена на трекере предоставлены пользователями сайта, и администрация не несёт ответственности за их содержание. Просьба не заливать файлы, защищенные авторскими правами, а также файлы нелегального содержания!


    _________________
    [Профиль] [ЛС]
    Показать сообщения:    
    Ответить на тему

    Текущее время: Сегодня, в 20:27

    Часовой пояс: GMT + 2



    Вы не можете начинать темы
    Вы не можете отвечать на сообщения
    Вы не можете редактировать свои сообщения
    Вы не можете удалять свои сообщения
    Вы не можете голосовать в опросах
    Вы не можете прикреплять файлы к сообщениям
    Вы не можете скачивать файлы