BitTorrentTracker PerecTracker.org
BitTorrentTracker PerecTracker.org
    
Регистрация  ·  Вход
 
 · 
Забыли пароль?

  • Золотой берег / Guldkysten / Gold Coast (Даниэл Денсик / Daniel Dencik) [2015, Дания, Швеция, Гана, драма, история, WEB-DL 1080p] VO + Sub Rus, Eng, Dan + Original Dan

    Ответить на тему
     
    Автор Сообщение

    Light

    Создавать темы 19-Май-2016 18:05

           

    [Цитировать]

    Золотой берег / Guldkysten / Gold Coast
    Страна: Дания, Швеция, Гана
    Студия: Danmarks Radio (DR), Dencik Film и др.
    Жанр: драма, история
    Год выпуска: 2015
    Продолжительность: 01:49:38
    Перевод: Одноголосый закадровый
    Cубтитры: русские (adelstein_s), английские, датские
    Оригинальная аудиодорожка: датский
    Режиссер: Даниэл Денсик / Daniel Dencik
    В ролях: Якоб Офтебро, Даница Чурчич, Андерс Хейнриксен, Мортен Хольст, Адам Ильд Роведер, Луисе Скоу
    Описание: 1836-й год, молодой офицер Вульф — романтик и оптимист, убежденный в том, что даже тени — это дети света, впервые покидает родной Копенгаген. Вульф отплывает в тропическую Африку, к берегам датской Гвинеи, с одобренной самим королем благородной миссией — превратить золотые берега, замаранные гнусной работорговлей, в плодородные сады, цветущие во славу датского королевства. Но что-то пошло не так…
    Кинопоиск
    Sample
    Тип релиза: WEB-DL 1080p
    Контейнер: MKV
    Видео: MPEG4 AVC Video, H264, 1912x796, 25 fps, 4307 kbps
    Аудио: Russian (AC3, 2 ch, 192 kbps, 16 bits, 48.0 KHz) - VO
    Аудио 2: Danish (AC3, 6 ch, 384 kbps, 16 bits, 48.0 KHz) - оригинал
    Формат субтитров: softsub (SRT)

    MediaInfo

    General
    Unique ID : 197446775468906503355985305145332255362 (0x948ADDA0784E3316B4A43FF064F0CA82)
    Complete name : E:\Guldkysten 2015 WEB-DL 1080p.mkv
    Format : Matroska
    Format version : Version 4 / Version 2
    File size : 3.82 GiB
    Duration : 1h 49mn
    Overall bit rate : 4 982 Kbps
    Encoded date : UTC 2016-05-18 08:56:54
    Writing application : mkvmerge v6.1.0 ('Old Devil') built on Mar 2 2013 14:32:37
    Writing library : libebml v1.3.0 + libmatroska v1.4.0
    Video
    ID : 1
    Format : AVC
    Format/Info : Advanced Video Codec
    Format profile : High@L4.0
    Format settings, CABAC : Yes
    Format settings, ReFrames : 5 frames
    Codec ID : V_MPEG4/ISO/AVC
    Duration : 1h 49mn
    Bit rate : 4 307 Kbps
    Width : 1 912 pixels
    Height : 796 pixels
    Display aspect ratio : 2.40:1
    Frame rate mode : Constant
    Frame rate : 25.000 fps
    Color space : YUV
    Chroma subsampling : 4:2:0
    Bit depth : 8 bits
    Scan type : Progressive
    Bits/(Pixel*Frame) : 0.113
    Stream size : 3.30 GiB (86%)
    Language : Danish
    Default : Yes
    Forced : No
    Color primaries : BT.709
    Transfer characteristics : BT.709
    Matrix coefficients : BT.709
    Audio #1
    ID : 2
    Format : AC-3
    Format/Info : Audio Coding 3
    Mode extension : CM (complete main)
    Format settings, Endianness : Big
    Codec ID : A_AC3
    Duration : 1h 49mn
    Bit rate mode : Constant
    Bit rate : 192 Kbps
    Channel count : 2 channels
    Channel positions : Front: L R
    Sampling rate : 48.0 KHz
    Bit depth : 16 bits
    Compression mode : Lossy
    Stream size : 151 MiB (4%)
    Language : Russian
    Default : Yes
    Forced : No
    Audio #2
    ID : 3
    Format : AC-3
    Format/Info : Audio Coding 3
    Mode extension : CM (complete main)
    Format settings, Endianness : Big
    Codec ID : A_AC3
    Duration : 1h 49mn
    Bit rate mode : Constant
    Bit rate : 384 Kbps
    Channel count : 6 channels
    Channel positions : Front: L C R, Side: L R, LFE
    Sampling rate : 48.0 KHz
    Bit depth : 16 bits
    Compression mode : Lossy
    Stream size : 301 MiB (8%)
    Language : Danish
    Default : No
    Forced : No
    Text #1
    ID : 4
    Format : UTF-8
    Codec ID : S_TEXT/UTF8
    Codec ID/Info : UTF-8 Plain Text
    Language : Russian
    Default : No
    Forced : No
    Text #2
    ID : 5
    Format : UTF-8
    Codec ID : S_TEXT/UTF8
    Codec ID/Info : UTF-8 Plain Text
    Language : English
    Default : No
    Forced : No
    Text #3
    ID : 6
    Format : UTF-8
    Codec ID : S_TEXT/UTF8
    Codec ID/Info : UTF-8 Plain Text
    Language : Danish
    Default : No
    Forced : No
    Menu
    00:00:00.000 : da:Kapitel 1
    00:15:00.000 : da:Kapitel 2
    00:30:00.000 : da:Kapitel 3
    00:45:00.000 : da:Kapitel 4
    01:00:00.000 : da:Kapitel 5
    01:15:00.000 : da:Kapitel 6
    01:30:00.000 : da:Kapitel 7

    Скриншоты

    Скачать .torrent

    Скачать торрент-файл бесплатно и на максимальной скорости!

    Как скачивать? · Что такое торрент? · Рейтинг и ограничения

    !ВНИМАНИЕ!
    Сайт не распространяет и не хранит электронные версии произведений, а занимается лишь лишь предоставлением доступа к создаваемому пользователями каталогу ссылок на торрент-файлы, которые содержат только списки хеш-сумм, убедительная просьба с жалобами обращаться напрямую к пользователю. Файлы для обмена на трекере предоставлены пользователями сайта, и администрация не несёт ответственности за их содержание. Просьба не заливать файлы, защищенные авторскими правами, а также файлы нелегального содержания!


    _________________
    [Профиль] [ЛС]
    Показать сообщения:    
    Ответить на тему

    Текущее время: Сегодня, в 21:24

    Часовой пояс: GMT + 2



    Вы не можете начинать темы
    Вы не можете отвечать на сообщения
    Вы не можете редактировать свои сообщения
    Вы не можете удалять свои сообщения
    Вы не можете голосовать в опросах
    Вы не можете прикреплять файлы к сообщениям
    Вы не можете скачивать файлы