BitTorrentTracker PerecTracker.org
BitTorrentTracker PerecTracker.org
    
Регистрация  ·  Вход
 
 · 
Забыли пароль?

  • Неопознанный звонок / Unknown Caller (Мария Олсен / Maria Olsen / Обин Ольсон / Obin Olson) [2014, США, Триллер, драма, HDRip] MVO (Павел Морозов)

    Ответить на тему
     
    Автор Сообщение

    Light

    Создавать темы 19-Май-2016 14:00

           

    [Цитировать]

    Неопознанный звонок / Unknown Caller
    Страна: США
    Жанр: Триллер, драма
    Год выпуска: 2014
    Продолжительность: 01:43:20
    Перевод: Одноголосый, закадровый - Павел Морозов
    Cубтитры: нет
    Режиссер: Мария Олсен / Maria Olsen / Обин Ольсон / Obin Olson
    В ролях: Дэвид Чисам, Ассаф Коэн, Карла ДеФранко, Луиз Гриффитс, Регина Гарбор, Генри Любатти, Виктор МакКэй, Анджоли Ниман
    Описание: Главный герой - Колин, который решает установить современную систему безопасности в своем доме. Недавно кто-то пытался проникнуть в его дом, и теперь он намерен защищать свою крепость. Но сыграет ли новая система безопасности ему на руку или окажется для него смертельно опасной? Ведь вскоре с ним случается нечто более опасное, чем просто проникновение вора в дом. Сумасшедший убийца подкладывает бомбу ему под дом, и терроризирует семью в течение нескольких часов.
    Сэмпл: http://multi-up.com/1102111
    Качество видео: HDRip (Кинозал)
    Формат видео: AVI
    Видео: XviD 73, 720x304, (2,35:1), 23,976 fps, 1555 Кбит/с, 8 бит
    Аудио: Русский (AC-3, 6 ch (Front: L C R, Side: L R, LFE), 48,0 KHz, 448 Kbps)

    MediaInfo

    Общее
    Полное имя : F:\Видеофильмы\В и д е о\Неопознанный звонок (боевик,драма 2014г).avi
    Формат : AVI
    Формат/Информация : Audio Video Interleave
    Размер файла : 1,45 Гбайт
    Продолжительность : 1 ч. 43 м.
    Общий поток : 2012 Кбит/сек
    Программа кодирования : VirtualDubMod 1.5.10.2 (build 2540/release)
    Библиотека кодирования : VirtualDubMod build 2540/release
    Авторское право : ExKinoRay
    Видео
    Идентификатор : 0
    Формат : MPEG-4 Visual
    Профиль формата : Advanced Simple@L5
    Параметр BVOP формата : 1
    Параметр QPel формата : Нет
    Параметр GMC формата : Без точки перехода
    Параметр матрицы формата : Выборочная
    Идентификатор кодека : XVID
    Идентификатор кодека/Подсказка : XviD
    Продолжительность : 1 ч. 43 м.
    Битрейт : 1555 Кбит/сек
    Ширина : 720 пикселей
    Высота : 304 пикселя
    Соотношение сторон : 2,35:1
    Частота кадров : 23,976 (23976/1000) кадра/сек
    Цветовое пространство : YUV
    Субдискретизация насыщенности : 4:2:0
    Битовая глубина : 8 бит
    Тип развёртки : Прогрессивная
    Метод сжатия : С потерями
    Бит/(Пиксели*Кадры) : 0.296
    Размер потока : 1,12 Гбайт (77%)
    Библиотека кодирования : XviD 73
    Аудио
    Идентификатор : 1
    Формат : AC-3
    Формат/Информация : Audio Coding 3
    Расширение режима : CM (complete main)
    Параметр Endianness формата : Big
    Идентификатор кодека : 2000
    Продолжительность : 1 ч. 43 м.
    Вид битрейта : Постоянный
    Битрейт : 448 Кбит/сек
    Каналы : 6 каналов
    Расположение каналов : Front: L C R, Side: L R, LFE
    Частота : 48,0 КГц
    Частота кадров : 31,250 кадров/сек (1536 spf)
    Метод сжатия : С потерями
    Размер потока : 331 Мбайт (22%)
    Выравнивание : Разделение по промежуткам
    Продолжительность промежутка : 42 мс. (1,00 видеокадр)
    Время предзагрузки промежутка : 500 мс.

    Скриншот c названием фильма

    Скриншоты

    Скачать .torrent

    Скачать торрент-файл бесплатно и на максимальной скорости!

    Как скачивать? · Что такое торрент? · Рейтинг и ограничения

    !ВНИМАНИЕ!
    Сайт не распространяет и не хранит электронные версии произведений, а занимается лишь лишь предоставлением доступа к создаваемому пользователями каталогу ссылок на торрент-файлы, которые содержат только списки хеш-сумм, убедительная просьба с жалобами обращаться напрямую к пользователю. Файлы для обмена на трекере предоставлены пользователями сайта, и администрация не несёт ответственности за их содержание. Просьба не заливать файлы, защищенные авторскими правами, а также файлы нелегального содержания!


    _________________
    [Профиль] [ЛС]
    Показать сообщения:    
    Ответить на тему

    Текущее время: Сегодня, в 17:26

    Часовой пояс: GMT + 2



    Вы не можете начинать темы
    Вы не можете отвечать на сообщения
    Вы не можете редактировать свои сообщения
    Вы не можете удалять свои сообщения
    Вы не можете голосовать в опросах
    Вы не можете прикреплять файлы к сообщениям
    Вы не можете скачивать файлы