BitTorrentTracker PerecTracker.org
BitTorrentTracker PerecTracker.org
    
Регистрация  ·  Вход
 
 · 
Забыли пароль?

  • Специальные корреспонденты / Special Correspondents (2016) WEB-DLRip | L

    Ответить на тему
     
    Автор Сообщение

    BOSS

    Создавать темы 19-Май-2016 06:33

           

    [Цитировать]

    Специальные корреспонденты / Special Correspondents
    Страна: США Великобритания Канада
    Производство: Unanimous Entertainment, Stage 6 Films, Bron Studios
    Год выпуска: 2016
    Жанр: комедия
    Продолжительность: 01:41:22
    Режиссер: Рики Джервэйс
    Автор сценария: Рики Джервэйс
    Продюсеры: Крис Коэн, Аарон Л. Гилберт, Мануэль Мунц
    В ролях: Эрик Бана, Рики Джервэйс, Вера Фармига, Келли Макдоналд, Америка Феррера, Рауль Кастильо, Бенджамин Брэтт, Кевин Поллак
    Описание: Комедия о радиожурналисте и его техническом помощнике, которые вляпываются в историю со своим же мнимым похищением во время волнений в Южной Америке. Пока их ищут по всему континенту, они отсиживаются в Нью-Йорке и придумывают, как выйти из этой ситуации сухими...

    Перевод: Любительский (многоголосый, закадровый)
    Субтитры: нет-Качество: WEB-DLRip
    Формат: АVI
    Видео кодек: XviD
    Аудио кодек: АС3
    Видео: 720x384 (1.85:1), 24.000 fps, XviD ~1 302 kbps avg, 0.196 bit/pixel
    Аудио: 48.0 kHz, AC3 Dolby Digital, 2/0 (L,R) ch, ~384 kbps
    Дата премьеры (мир): 22 апреля 2016
    ПРИМЕЧАНИЕ: ПРИСУТСТВУЕТ РЕКЛАМА!

    Media Info

    General
    Format : AVI
    Format/Info : Audio Video Interleave
    Overall bit rate : 1 696 Kbps
    Movie name : Specialnye.korrespondenty.2016.L.WEB-DLRip.1400MB
    Writing application : VirtualDubMod 1.5.10.3 | (build 2550/release)
    Writing library : VirtualDubMod build 2550/release
    Copyright : MoreFilms
    Video
    ID : 0
    Format : MPEG-4 Visual
    Format profile : Advanced Simple@L5
    Format settings, BVOP : 2
    Format settings, QPel : No
    Format settings, GMC : No warppoints
    Format settings, Matrix : Custom
    Codec ID : XVID
    Codec ID/Hint : XviD
    Bit rate : 1 302 Kbps
    Width : 720 pixels
    Height : 384 pixels
    Display aspect ratio : 1.85:1
    Frame rate : 24.000 fps
    Color space : YUV
    Chroma subsampling : 4:2:0
    Bit depth : 8 bits
    Scan type : Progressive
    Compression mode : Lossy
    Bits/(Pixel*Frame) : 0.196
    Stream size : 12.5 MiB (77%)
    Writing library : XviD 1.2.1 (UTC 2008-12-04)
    Audio
    ID : 1
    Format : AC-3
    Format/Info : Audio Coding 3
    Mode extension : CM (complete main)
    Format settings, Endianness : Big
    Codec ID : 2000
    Bit rate mode : Constant
    Bit rate : 384 Kbps
    Channel(s) : 2 channels
    Channel positions : Front: L R
    Sampling rate : 48.0 KHz
    Compression mode : Lossy
    Delay relative to video : 18ms
    Stream size : 3.69 MiB (23%)
    Alignment : Split accross interleaves
    Interleave, duration : 42 ms (1.01 video frame)
    Interleave, preload duration : 500 ms

    Скриншоты

    Скачать .torrent

    Скачать торрент-файл бесплатно и на максимальной скорости!

    Как скачивать? · Что такое торрент? · Рейтинг и ограничения

    !ВНИМАНИЕ!
    Сайт не распространяет и не хранит электронные версии произведений, а занимается лишь лишь предоставлением доступа к создаваемому пользователями каталогу ссылок на торрент-файлы, которые содержат только списки хеш-сумм, убедительная просьба с жалобами обращаться напрямую к пользователю. Файлы для обмена на трекере предоставлены пользователями сайта, и администрация не несёт ответственности за их содержание. Просьба не заливать файлы, защищенные авторскими правами, а также файлы нелегального содержания!

    [Профиль] [ЛС]
    Показать сообщения:    
    Ответить на тему

    Текущее время: Сегодня, в 17:22

    Часовой пояс: GMT + 2



    Вы не можете начинать темы
    Вы не можете отвечать на сообщения
    Вы не можете редактировать свои сообщения
    Вы не можете удалять свои сообщения
    Вы не можете голосовать в опросах
    Вы не можете прикреплять файлы к сообщениям
    Вы не можете скачивать файлы