BitTorrentTracker PerecTracker.org
BitTorrentTracker PerecTracker.org
    
Регистрация  ·  Вход
 
 · 
Забыли пароль?

  • Комедия строгого режима (Михаил Григорьев, Владимир Студенников) [1992, комедия, DVDRip-AVC]

    Ответить на тему
     
    Автор Сообщение

    Flirldrerve

    Создавать темы 18-Май-2016 09:20

           

    [Цитировать]

    Комедия строгого режима
    Жанр: комедия, гротеск
    Год выпуска: 1992
    Продолжительность: 01:16:10
    -
    Режиссёр: Михаил Григорьев, Владимир Студенников
    В ролях: Виктор Сухоруков, Иван Криворучко, Лев Кубарев, Станислав Канцевич, Надежда Жарикова, Виктор Михайлов, Виктор Соловьёв, Ю. Вьюшин, Константин Демидов, Владимир Калиш, Анатолий Сливников, Евгений Меркурьев, Юрий Эллер, Ю. Костыгин, Виктор Иванов, Сергей Селин, Р. Новиков
    -
    Описание: Чтобы отличиться перед высоким начальством, руководство колонии решает силами заключенных поставить революционный спектакль к 100-летию Ленина. Заключенные, играя роль, перевоплощаются в своих персонажей, и, воодушевившись революционным задором, готовят побег.
    -
    Доп. информация:
    -
    Сэмпл: https://www.sendspace.com/file/7s3pd8
    -
    Качество видео: DVDRip-AVC (DVD5/RMV)
    Формат видео: MKV
    Видео: 720x556 (1.381:1) @ 768x556, 25 fps, AVC, ~2 545 Kbps, 0.254 bits/pixel
    Аудио: 48 kHz, AC3 Dolby Digital, 2/0 (L,R) ch, ~192 kbps

    MediaInfo

    x264 [info]: frame I:629 Avg QP:18.34 size: 45268
    x264 [info]: frame P:22197 Avg QP:21.20 size: 21902
    x264 [info]: frame B:91438 Avg QP:24.10 size: 10273-General
    Unique ID : 195494007691780787482505821872920095085 (0x9312C6BDF7E58922A1EB202D532E696D)
    Complete name : C:\Users\ALEX\Downloads\Фильмы\Комедия строгого режима.1992.DVDRip-AVC.x264.AC3.mkv
    Format : Matroska
    Format version : Version 4 / Version 2
    File size : 1.46 GiB
    Duration : 1h 16mn
    Overall bit rate : 2 739 Kbps
    Encoded date : UTC 2016-05-17 16:54:44
    Writing application : mkvmerge v8.5.2 ('Crosses') 64bit
    Writing library : libebml v1.3.3 + libmatroska v1.4.4
    Video
    ID : 1
    Format : AVC
    Format/Info : Advanced Video Codec
    Format profile : High@L4.1
    Format settings, CABAC : Yes
    Format settings, ReFrames : 12 frames
    Codec ID : V_MPEG4/ISO/AVC
    Duration : 1h 16mn
    Bit rate : 2 545 Kbps
    Width : 720 pixels
    Height : 556 pixels
    Display aspect ratio : 1.381
    Frame rate mode : Constant
    Frame rate : 25.000 fps
    Color space : YUV
    Chroma subsampling : 4:2:0
    Bit depth : 8 bits
    Scan type : Progressive
    Bits/(Pixel*Frame) : 0.254
    Stream size : 1.35 GiB (93%)
    Title : Комедия строгого режима
    Writing library : x264 core 148 r2638 7599210
    Encoding settings : cabac=1 / ref=12 / deblock=1:-2:-2 / analyse=0x3:0x113 / me=umh / subme=11 / psy=1 / psy_rd=1.00:0.10 / mixed_ref=1 / me_range=32 / chroma_me=1 / trellis=2 / 8x8dct=1 / cqm=0 / deadzone=21,11 / fast_pskip=0 / chroma_qp_offset=-3 / threads=6 / lookahead_threads=1 / sliced_threads=0 / nr=0 / decimate=1 / interlaced=0 / bluray_compat=0 / constrained_intra=0 / bframes=10 / b_pyramid=2 / b_adapt=2 / b_bias=0 / direct=3 / weightb=1 / open_gop=0 / weightp=2 / keyint=250 / keyint_min=25 / scenecut=40 / intra_refresh=0 / rc=2pass / mbtree=0 / bitrate=2545 / ratetol=1.0 / qcomp=0.60 / qpmin=0 / qpmax=69 / qpstep=4 / cplxblur=20.0 / qblur=0.5 / ip_ratio=1.40 / pb_ratio=1.30 / aq=1:1.00
    Language : Russian
    Default : Yes
    Forced : No
    Audio
    ID : 2
    Format : AC-3
    Format/Info : Audio Coding 3
    Mode extension : CM (complete main)
    Format settings, Endianness : Big
    Codec ID : A_AC3
    Duration : 1h 16mn
    Bit rate mode : Constant
    Bit rate : 192 Kbps
    Channel(s) : 2 channels
    Channel positions : Front: L R
    Sampling rate : 48.0 KHz
    Frame rate : 31.250 fps (1536 spf)
    Compression mode : Lossy
    Stream size : 105 MiB (7%)
    Title : Original
    Language : Russian
    Default : Yes
    Forced : No

    Скриншоты

    Скачать .torrent

    Скачать торрент-файл бесплатно и на максимальной скорости!

    Как скачивать? · Что такое торрент? · Рейтинг и ограничения

    !ВНИМАНИЕ!
    Сайт не распространяет и не хранит электронные версии произведений, а занимается лишь лишь предоставлением доступа к создаваемому пользователями каталогу ссылок на торрент-файлы, которые содержат только списки хеш-сумм, убедительная просьба с жалобами обращаться напрямую к пользователю. Файлы для обмена на трекере предоставлены пользователями сайта, и администрация не несёт ответственности за их содержание. Просьба не заливать файлы, защищенные авторскими правами, а также файлы нелегального содержания!


    _________________
    [Профиль] [ЛС]
    Показать сообщения:    
    Ответить на тему

    Текущее время: Сегодня, в 10:39

    Часовой пояс: GMT + 2



    Вы не можете начинать темы
    Вы не можете отвечать на сообщения
    Вы не можете редактировать свои сообщения
    Вы не можете удалять свои сообщения
    Вы не можете голосовать в опросах
    Вы не можете прикреплять файлы к сообщениям
    Вы не можете скачивать файлы