Register  ·  Log in
Forgot password?

  • Украсть Мороженку / Стокгольмский синдром / The Kidnap (Крис Гу Ю / Kris Gu Yu) [2010, Китай, комедия, DVDRip] DVO

    Reply to topic
    Author Message


    Post 16-Feb-2014 13:11



    Украсть Мороженку / Стокгольмский синдром / The Kidnap
    Страна: Китай
    Жанр: комедия
    Год выпуска: 2010
    Продолжительность: 01:30:02-Перевод: Любительский (двухголосый закадровый) den904 & DeadSno
    Cубтитры: английские + китайские (вшитые)
    Оригинальная аудиодорожка: нет-Режиссер: Крис Гу Ю / Kris Gu Yu
    В ролях: Чампман То, Сунь Син, Ли Фэй Эр, У Ган, Лю Лэй, Чжао Мэй Тун-Описание: Мороженка Линь - певица, которую нанимают, чтобы изобразить поп-певицу Нану...--Качество видео: DVDRip
    Формат видео: AVI
    Видео: XviD, 592x304 (1.95:1), 25 fps� 880 kbps avg, 0.20 bit/pixel
    Аудио: Русский MPEG layer 3, 192 kbps-

    Доп. информация

    Переводчик: Skyworker


    Format : AVI
    Format/Info : Audio Video Interleave
    File size : 696 MiB
    Duration : 1h 30mn
    Overall bit rate : 1 082 Kbps
    Writing application : VirtualDubMod (build 2540/release)
    Writing library : VirtualDubMod build 2540/release
    ID : 0
    Format : MPEG-4 Visual
    Format profile : Simple@L3
    Format settings, BVOP : 2
    Format settings, QPel : No
    Format settings, GMC : No warppoints
    Format settings, Matrix : Default (MPEG)
    Muxing mode : Packed bitstream
    Codec ID : XVID
    Codec ID/Hint : XviD
    Duration : 1h 30mn
    Bit rate : 880 Kbps
    Width : 592 pixels
    Height : 304 pixels
    Display aspect ratio : 1.947
    Frame rate : 25.000 fps
    Color space : YUV
    Chroma subsampling : 4:2:0
    Bit depth : 8 bits
    Scan type : Progressive
    Compression mode : Lossy
    Bits/(Pixel*Frame) : 0.196
    Stream size : 567 MiB (81%)
    Writing library : XviD 1.0.3 (UTC 2004-12-20)
    ID : 1
    Format : MPEG Audio
    Format version : Version 1
    Format profile : Layer 3
    Mode : Joint stereo
    Codec ID : 55
    Codec ID/Hint : MP3
    Duration : 1h 30mn
    Bit rate mode : Constant
    Bit rate : 192 Kbps
    Channel(s) : 2 channels
    Sampling rate : 48.0 KHz
    Compression mode : Lossy
    Stream size : 124 MiB (18%)
    Alignment : Aligned on interleaves
    Interleave, duration : 40 ms (1.00 video frame)
    Interleave, preload duration : 504 ms

    Скриншот с названием


    Download .torrent

    Download free and at maximum speed!

    How to Download? · What is a torrent? · Ratings and Limitations

    The site does not extend and does not store electronic(digital) versions of products, and only gives access to a reference catalogue created by users on torrent-files which contain only lists of the hash-sums, the earnest entreaty, with complaints(abuse) to access directly to the user. Files for an exchange on tracker are given by users of a site, and the administration does not bear the responsibility for their maintenance. The request to not fill in the files protected by copyrights, and also files of the illegal maintenance!

    [Profile] [PM]
    Display posts from previous:    
    Reply to topic

    The time now is: Today 14:18

    All times are GMT + 3 Hours

    You cannot post new topics in this forum
    You cannot reply to topics in this forum
    You cannot edit your posts in this forum
    You cannot delete your posts in this forum
    You cannot vote in polls in this forum
    You cannot attach files in this forum
    You cannot download files in this forum