BitTorrentTracker PerecTracker.org
BitTorrentTracker PerecTracker.org
    
Регистрация  ·  Вход
 
 · 
Забыли пароль?

  • Контроль / Control (Тим Хантер / Tim Hunter) [2004, Германия, США, Аруба, триллер, криминал, драма, BDRip 1080p] MVO + AVO (С.Визгунов) + MVO (Ukr) + Sub Rus, Eng + Original Eng

    Ответить на тему
     
    Автор Сообщение

    Light

    Создавать темы 18-Май-2016 09:20

           

    [Цитировать]

    Контроль / Control
    Страна: Германия, США, Аруба
    Студия: Arc Productions, Emmett/Furla Films, Millennium Films
    Жанр: триллер, криминал, драма
    Год выпуска: 2004
    Продолжительность: 01:44:37
    Перевод 1: Профессиональный (многоголосый закадровый)
    Перевод 2: Авторский (одноголосый закадровый) С.Визгунов
    Cубтитры: русские, английские, датские, финские, норвежские, испанские
    Оригинальная аудиодорожка: английский
    Режиссер: Тим Хантер / Tim Hunter
    В ролях: Рэй Лиотта, Уиллем Дефо, Мишель Родригес, Стивен Ри, Полли Уокер, Кэтлин Робертсон, Тим ДиКей, Марк Пиккард, Стюарт Александр, Гленн Рэйдж
    Описание: В последние секунды своей жизни Ли Рэй Оливер вспоминал детство... Смертельная инъекция заполняла тело психопата-убийцы ядовитой жидкостью... В конце концов, глаза Оливера закрылись, и врач констатировал наступление смерти...
    Когда свидетели, которым полагалось присутствовать при исполнении смертного приговора, разошлись, тело Ли Рэя в черном целлофановом мешке увезли в другую комнату, где спустя некоторое время Оливер проснулся и узнал, что ему предлагается стать участником секретного медицинского эксперимента.
    Если он откажется, то однажды исполненный смертный приговор будет исполнен второй раз, только уже без свидетелей и «по-настоящему», без последующего пробуждения. Если же согласится, то получит шанс продлить жизнь... Медики и сами не знали, чем закончится задуманный ими опасный эксперимент...- -Сэмпл: http://sendfile.su/1234273
    Тип релиза: BDRip 1080p [VietHD]
    Контейнер: MKV
    Видео: h.264, 1920x1040, 24.000 fps, 14100 kbps
    Аудио #1: Russian: AC3 5.1, 48 kHz, 384 kbps avg |Многоголосый закадровый|
    Аудио #2: Russian: AC3 2.0, 48 kHz, 192 kbps avg |Одноголосый закадровый, С. Визгунов|
    Аудио #3: Ukrainian: AC3 2.0, 48 kHz, 192 kbps avg |Многоголосый закадровый|
    Аудио #4: English: DTS 5.1, 48 kHz/24-bit, 1536 kbps avg |Оригинал|
    Формат субтитров: softsub (SRT)

    MediaInfo

    Complete name : D:\Принятые\Control.2004.1080p.BluRay.2xRus.Ukr.Eng.HDCLUB.mkv
    Format : Matroska
    Format version : Version 2
    File size : 12.2 GiB
    Duration : 1h 44mn
    Overall bit rate : 16.7 Mbps
    Movie name : Control (2004) - Release for HDCLUB
    Encoded date : UTC 2016-05-15 14:50:26
    Writing application : mkvmerge v5.7.0 ('The Whirlwind') built on Jul 8 2012 20:08:51
    Writing library : libebml v1.2.3 + libmatroska v1.3.0
    Video
    ID : 1
    Format : AVC
    Format/Info : Advanced Video Codec
    Format profile : High@L4.1
    Format settings, CABAC : Yes
    Format settings, ReFrames : 4 frames
    Codec ID : V_MPEG4/ISO/AVC
    Duration : 1h 44mn
    Bit rate : 14.1 Mbps
    Width : 1 920 pixels
    Height : 1 040 pixels
    Display aspect ratio : 1.85:1
    Frame rate mode : Constant
    Frame rate : 24.000 fps
    Color space : YUV
    Chroma subsampling : 4:2:0
    Bit depth : 8 bits
    Scan type : Progressive
    Bits/(Pixel*Frame) : 0.294
    Stream size : 10.3 GiB (84%)
    Writing library : x264 core 148 r2665kMod a01e339
    Encoding settings : cabac=1 / ref=4 / deblock=1:-3:-3 / analyse=0x3:0x133 / me=umh / subme=10 / psy=1 / fade_compensate=0.00 / psy_rd=1.07:0.00 / mixed_ref=1 / me_range=24 / chroma_me=1 / trellis=2 / 8x8dct=1 / cqm=0 / deadzone=21,11 / fast_pskip=0 / chroma_qp_offset=-2 / threads=12 / lookahead_threads=2 / sliced_threads=0 / nr=0 / decimate=0 / interlaced=0 / bluray_compat=0 / constrained_intra=0 / fgo=0 / bframes=9 / b_pyramid=2 / b_adapt=2 / b_bias=0 / direct=3 / weightb=1 / open_gop=0 / weightp=2 / keyint=250 / keyint_min=24 / scenecut=40 / intra_refresh=0 / rc_lookahead=60 / rc=crf / mbtree=0 / crf=18.5000 / qcomp=0.65 / qpmin=0 / qpmax=69 / qpstep=4 / vbv_maxrate=62500 / vbv_bufsize=78125 / crf_max=0.0 / nal_hrd=none / filler=0 / ip_ratio=1.30 / pb_ratio=1.20 / aq=3:0.79
    Language : English
    Default : Yes
    Forced : No
    Color range : Limited
    Matrix coefficients : BT.709
    Audio #1
    ID : 2
    Format : AC-3
    Format/Info : Audio Coding 3
    Mode extension : CM (complete main)
    Format settings, Endianness : Big
    Codec ID : A_AC3
    Duration : 1h 44mn
    Bit rate mode : Constant
    Bit rate : 384 Kbps
    Channel(s) : 6 channels
    Channel positions : Front: L C R, Side: L R, LFE
    Sampling rate : 48.0 KHz
    Frame rate : 31.250 fps (1536 spf)
    Compression mode : Lossy
    Stream size : 287 MiB (2%)
    Title : |Многоголосый закадровый|
    Language : Russian
    Default : Yes
    Forced : No
    Audio #2
    ID : 3
    Format : AC-3
    Format/Info : Audio Coding 3
    Mode extension : CM (complete main)
    Format settings, Endianness : Big
    Codec ID : A_AC3
    Duration : 1h 44mn
    Bit rate mode : Constant
    Bit rate : 192 Kbps
    Channel(s) : 2 channels
    Channel positions : Front: L R
    Sampling rate : 48.0 KHz
    Frame rate : 31.250 fps (1536 spf)
    Compression mode : Lossy
    Stream size : 144 MiB (1%)
    Title : |Одноголосый закадровый, С. Визгунов|
    Language : Russian
    Default : No
    Forced : No
    Audio #3
    ID : 4
    Format : AC-3
    Format/Info : Audio Coding 3
    Mode extension : CM (complete main)
    Format settings, Endianness : Big
    Codec ID : A_AC3
    Duration : 1h 44mn
    Bit rate mode : Constant
    Bit rate : 192 Kbps
    Channel(s) : 2 channels
    Channel positions : Front: L R
    Sampling rate : 48.0 KHz
    Frame rate : 31.250 fps (1536 spf)
    Compression mode : Lossy
    Stream size : 144 MiB (1%)
    Title : |Многоголосый закадровый|
    Language : Ukrainian
    Default : No
    Forced : No
    Audio #4
    ID : 5
    Format : DTS
    Format/Info : Digital Theater Systems
    Mode : 16
    Format settings, Endianness : Big
    Codec ID : A_DTS
    Duration : 1h 44mn
    Bit rate mode : Constant
    Bit rate : 1 509 Kbps
    Channel(s) : 6 channels
    Channel positions : Front: L C R, Side: L R, LFE
    Sampling rate : 48.0 KHz
    Frame rate : 93.750 fps (512 spf)
    Bit depth : 24 bits
    Compression mode : Lossy
    Stream size : 1.10 GiB (9%)
    Language : English
    Default : No
    Forced : No
    Text #1
    ID : 6
    Format : UTF-8
    Codec ID : S_TEXT/UTF8
    Codec ID/Info : UTF-8 Plain Text
    Language : Russian
    Default : No
    Forced : No
    Text #2
    ID : 7
    Format : UTF-8
    Codec ID : S_TEXT/UTF8
    Codec ID/Info : UTF-8 Plain Text
    Language : English
    Default : No
    Forced : No
    Text #3
    ID : 8
    Format : UTF-8
    Codec ID : S_TEXT/UTF8
    Codec ID/Info : UTF-8 Plain Text
    Language : Danish
    Default : No
    Forced : No
    Text #4
    ID : 9
    Format : UTF-8
    Codec ID : S_TEXT/UTF8
    Codec ID/Info : UTF-8 Plain Text
    Language : Finnish
    Default : No
    Forced : No
    Text #5
    ID : 10
    Format : UTF-8
    Codec ID : S_TEXT/UTF8
    Codec ID/Info : UTF-8 Plain Text
    Language : Norwegian
    Default : No
    Forced : No
    Text #6
    ID : 11
    Format : UTF-8
    Codec ID : S_TEXT/UTF8
    Codec ID/Info : UTF-8 Plain Text
    Language : Swedish
    Default : No
    Forced : No
    Menu
    00:00:00.000 : en:00:00:00.000
    00:09:59.583 : en:00:09:59.583
    00:20:00.000 : en:00:20:00.000
    00:29:59.958 : en:00:29:59.958
    00:39:59.583 : en:00:39:59.583
    00:49:59.917 : en:00:49:59.917
    00:59:59.917 : en:00:59:59.917
    01:09:59.958 : en:01:09:59.958
    01:19:59.625 : en:01:19:59.625
    01:29:59.625 : en:01:29:59.625
    01:39:59.833 : en:01:39:59.833

    Source vs Encode




    Скриншоты

    Скачать .torrent

    Скачать торрент-файл бесплатно и на максимальной скорости!

    Как скачивать? · Что такое торрент? · Рейтинг и ограничения

    !ВНИМАНИЕ!
    Сайт не распространяет и не хранит электронные версии произведений, а занимается лишь лишь предоставлением доступа к создаваемому пользователями каталогу ссылок на торрент-файлы, которые содержат только списки хеш-сумм, убедительная просьба с жалобами обращаться напрямую к пользователю. Файлы для обмена на трекере предоставлены пользователями сайта, и администрация не несёт ответственности за их содержание. Просьба не заливать файлы, защищенные авторскими правами, а также файлы нелегального содержания!


    _________________
    [Профиль] [ЛС]
    Показать сообщения:    
    Ответить на тему

    Текущее время: Сегодня, в 12:46

    Часовой пояс: GMT + 2



    Вы не можете начинать темы
    Вы не можете отвечать на сообщения
    Вы не можете редактировать свои сообщения
    Вы не можете удалять свои сообщения
    Вы не можете голосовать в опросах
    Вы не можете прикреплять файлы к сообщениям
    Вы не можете скачивать файлы