BitTorrentTracker PerecTracker.org
BitTorrentTracker PerecTracker.org
    
Регистрация  ·  Вход
 
 · 
Забыли пароль?

  • 24 часа / Trapped (Луис Мандоки / Luis Mandoki) [2002, США, Германия, триллер, драма, криминал, BDRip 720p] Dub + MVO (Ukr) + Sub Rus, Ukr, Eng + Original Eng

    Ответить на тему
     
    Автор Сообщение

    Light

    Создавать темы 18-Май-2016 09:20

           

    [Цитировать]

    24 часа / Trapped
    Страна: США, Германия
    Студия: Columbia Pictures, Senator Film Produktion, Canton Company
    Жанр: триллер, драма, криминал
    Год выпуска: 2002
    Продолжительность: 01:45:46
    Перевод: Профессиональный (дублированный) Мосфильм-Мастер
    Cубтитры: русские, украинские, английские
    Оригинальная аудиодорожка: английский
    Режиссер: Луис Мандоки / Luis Mandoki
    В ролях: Шарлиз Терон, Кортни Лав, Стюарт Таунсенд, Кевин Бейкон, Прюитт Тэйлор Винс, Дакота Фаннинг, Стив Рэнкин, Гари Чок, Джоди Маркелл, Мэтт Коби
    Описание: Трое преступников — супруги Хики Джо и Черил и их кузен Джой Марвин — настолько хорошо знают среду, в которой живут, что сумели разработать безукоризненный план вымогательства денег у состоятельных семей. Они действуют уверенно, умело и успешно и настолько хорошо заметают свои следы, что после них остаются только перепуганные жертвы, которые предпочитают хранить молчание, ибо рады уже тому, что остались живы.
    Но на этот раз они ошиблись в выборе семьи, которая предпочла дать отпор преступникам, вследствие чего события приняли неожиданный поворот…- -Сэмпл: http://sendfile.su/1234291
    Тип релиза: BDRip 720p [VietHD]
    Контейнер: MKV
    Видео: h.264, 1280x720, 23.976 fps, 7359 kbps
    Аудио #1: Russian: AC3 5.1, 48 kHz, 448 kbps avg |Дубляж, Мосфильм-Мастер|
    Аудио #2: Ukrainian: AC3 2.0, 48 kHz, 192 kbps avg |Многоголосый закадровый, Так Треба Продакшн|
    Аудио #3: English: DTS 5.1, 48 kHz/24-bit, 1536 kbps avg |Оригинал|

    MediaInfo

    Complete name : D:\Принятые\Trapped.2002.720p.BluRay.Rus.Ukr.Eng.HDCLUB.mkv
    Format : Matroska
    Format version : Version 2
    File size : 7.17 GiB
    Duration : 1h 45mn
    Overall bit rate : 9 701 Kbps
    Movie name : Trapped (2002) - Release for HDCLUB
    Encoded date : UTC 2016-04-26 21:00:43
    Writing application : mkvmerge v5.7.0 ('The Whirlwind') built on Jul 8 2012 20:08:51
    Writing library : libebml v1.2.3 + libmatroska v1.3.0
    Video
    ID : 1
    Format : AVC
    Format/Info : Advanced Video Codec
    Format profile : High@L4.1
    Format settings, CABAC : Yes
    Format settings, ReFrames : 9 frames
    Codec ID : V_MPEG4/ISO/AVC
    Duration : 1h 45mn
    Bit rate : 7 359 Kbps
    Width : 1 280 pixels
    Height : 720 pixels
    Display aspect ratio : 16:9
    Frame rate mode : Constant
    Frame rate : 23.976 (24000/1001) fps
    Color space : YUV
    Chroma subsampling : 4:2:0
    Bit depth : 8 bits
    Scan type : Progressive
    Bits/(Pixel*Frame) : 0.333
    Stream size : 5.44 GiB (76%)
    Writing library : x264 core 148 r2665kMod a01e339
    Encoding settings : cabac=1 / ref=9 / deblock=1:-3:-3 / analyse=0x3:0x133 / me=umh / subme=10 / psy=1 / fade_compensate=0.00 / psy_rd=1.05:0.00 / mixed_ref=1 / me_range=24 / chroma_me=1 / trellis=2 / 8x8dct=1 / cqm=0 / deadzone=21,11 / fast_pskip=0 / chroma_qp_offset=-2 / threads=12 / lookahead_threads=3 / sliced_threads=0 / nr=0 / decimate=0 / interlaced=0 / bluray_compat=0 / constrained_intra=0 / fgo=0 / bframes=10 / b_pyramid=2 / b_adapt=2 / b_bias=0 / direct=3 / weightb=1 / open_gop=0 / weightp=2 / keyint=250 / keyint_min=23 / scenecut=40 / intra_refresh=0 / rc_lookahead=60 / rc=crf / mbtree=0 / crf=18.8000 / qcomp=0.65 / qpmin=0 / qpmax=69 / qpstep=4 / vbv_maxrate=62500 / vbv_bufsize=78125 / crf_max=0.0 / nal_hrd=none / filler=0 / ip_ratio=1.30 / pb_ratio=1.20 / aq=3:0.75
    Language : English
    Default : Yes
    Forced : No
    Color range : Limited
    Matrix coefficients : BT.709
    Audio #1
    ID : 2
    Format : AC-3
    Format/Info : Audio Coding 3
    Mode extension : CM (complete main)
    Format settings, Endianness : Big
    Codec ID : A_AC3
    Duration : 1h 45mn
    Bit rate mode : Constant
    Bit rate : 448 Kbps
    Channel(s) : 6 channels
    Channel positions : Front: L C R, Side: L R, LFE
    Sampling rate : 48.0 KHz
    Frame rate : 31.250 fps (1536 spf)
    Compression mode : Lossy
    Stream size : 339 MiB (5%)
    Title : |Дубляж, Мосфильм-Мастер|
    Language : Russian
    Default : Yes
    Forced : No
    Audio #2
    ID : 3
    Format : AC-3
    Format/Info : Audio Coding 3
    Mode extension : CM (complete main)
    Format settings, Endianness : Big
    Codec ID : A_AC3
    Duration : 1h 45mn
    Bit rate mode : Constant
    Bit rate : 192 Kbps
    Channel(s) : 2 channels
    Channel positions : Front: L R
    Sampling rate : 48.0 KHz
    Frame rate : 31.250 fps (1536 spf)
    Compression mode : Lossy
    Stream size : 145 MiB (2%)
    Title : |Многолосый закадровый, Так Треба Продакшн|
    Language : Ukrainian
    Default : No
    Forced : No
    Audio #3
    ID : 4
    Format : DTS
    Format/Info : Digital Theater Systems
    Mode : 16
    Format settings, Endianness : Big
    Codec ID : A_DTS
    Duration : 1h 45mn
    Bit rate mode : Constant
    Bit rate : 1 509 Kbps
    Channel(s) : 6 channels
    Channel positions : Front: L C R, Side: L R, LFE
    Sampling rate : 48.0 KHz
    Frame rate : 93.750 fps (512 spf)
    Bit depth : 24 bits
    Compression mode : Lossy
    Stream size : 1.11 GiB (16%)
    Language : English
    Default : No
    Forced : No
    Text #1
    ID : 5
    Format : UTF-8
    Codec ID : S_TEXT/UTF8
    Codec ID/Info : UTF-8 Plain Text
    Language : Russian
    Default : No
    Forced : No
    Text #2
    ID : 6
    Format : UTF-8
    Codec ID : S_TEXT/UTF8
    Codec ID/Info : UTF-8 Plain Text
    Language : Ukrainian
    Default : No
    Forced : No
    Text #3
    ID : 7
    Format : UTF-8
    Codec ID : S_TEXT/UTF8
    Codec ID/Info : UTF-8 Plain Text
    Language : English
    Default : No
    Forced : No
    Menu
    00:00:00.000 : en:00:00:00.000
    00:07:15.602 : en:00:07:15.602
    00:16:04.755 : en:00:16:04.755
    00:25:08.006 : en:00:25:08.006
    00:39:00.797 : en:00:39:00.797
    00:44:16.654 : en:00:44:16.654
    00:52:52.419 : en:00:52:52.419
    01:04:01.421 : en:01:04:01.421
    01:12:50.575 : en:01:12:50.575
    01:19:37.272 : en:01:19:37.272
    01:29:00.335 : en:01:29:00.335
    01:42:05.119 : en:01:42:05.119

    Source vs Encode




    Скриншоты

    Скачать .torrent

    Скачать торрент-файл бесплатно и на максимальной скорости!

    Как скачивать? · Что такое торрент? · Рейтинг и ограничения

    !ВНИМАНИЕ!
    Сайт не распространяет и не хранит электронные версии произведений, а занимается лишь лишь предоставлением доступа к создаваемому пользователями каталогу ссылок на торрент-файлы, которые содержат только списки хеш-сумм, убедительная просьба с жалобами обращаться напрямую к пользователю. Файлы для обмена на трекере предоставлены пользователями сайта, и администрация не несёт ответственности за их содержание. Просьба не заливать файлы, защищенные авторскими правами, а также файлы нелегального содержания!


    _________________
    [Профиль] [ЛС]
    Показать сообщения:    
    Ответить на тему

    Текущее время: Сегодня, в 22:19

    Часовой пояс: GMT + 2



    Вы не можете начинать темы
    Вы не можете отвечать на сообщения
    Вы не можете редактировать свои сообщения
    Вы не можете удалять свои сообщения
    Вы не можете голосовать в опросах
    Вы не можете прикреплять файлы к сообщениям
    Вы не можете скачивать файлы