BitTorrentTracker PerecTracker.org
BitTorrentTracker PerecTracker.org
    
Регистрация  ·  Вход
 
 · 
Забыли пароль?

  • Ронин / Ronin (Джон Франкенхаймер) [1998, Великобритания, Франция, США, боевик, триллер, криминал, приключения, BDRip HD (720p), SD (480p)] DUB, MVO, AVO, Original + SUB (rus, ukr, eng)

    Ответить на тему
     
    Автор Сообщение

    rechyn

    Создавать темы 18-Май-2016 09:20

           

    [Цитировать]

    Ронин / Ronin
    "Anyone is an enemy for a price"
    7.392 / 10
    -Год выпуска: 1998
    Страна: Великобритания, Франция, США
    Жанр: боевик, триллер, криминал, приключения
    Продолжительность: 122 мин. (02:01:34)
    Перевод: Профессиональный дублированные перевод, многоголосый закадровый перевод и одноголосый закадровый авторский перевод
    Оригинальная аудиодорожка: Есть
    Cубтитры: Русские полные, украинские полные, английские форсированные и английские полные
    Режиссёр: Джон Франкенхаймер
    Сценарий: Дж. Д. Зайк, Дэвид Мэмет
    Продюсер: Фрэнк Манкузо мл., Пол Келменсон, Этель Уинант
    Оператор: Робер Фресс
    Композитор: Элиа Кмирал
    Художник: Майкл З. Ханан, Жерар Виар, Мэй Рут
    Монтаж: Энтони Гиббс
    В ролях: Роберт Де Ниро, Жан Рено, Наташа МакЭлхоун, Стеллан Скарсгард, Шон Бин, Скипп Саддат, Микаэль Лонсдаль, Ян Триска, Джонатан Прайс, Рон Перкинс
    Роли дублировали: Виктор Костецкий, Андрей Толубеев, Алексей Гурьев
    Бюджет: $55 000 000
    Сборы в США: $41 616 262
    Мировая премьера: 12 сентября 1998
    Релиз на DVD: 23 июля 2009, Двадцатый Век Фокс СНГ
    Описание: Хотя холодная война давно закончена, тайные наемники, чьи навыки в слежке, шпионаже и силовых схватках буквально легендарны, остаются востребованными при новом мировом порядке и всегда находят высокооплачиваемую работу. Некий таинственный клиент собирает в Париже команду таких "платных оперативников", известных как "Ронины", для похищения сверхсекретного портфеля.
    Вскоре выясняется, что это, на первый взгляд простое, задание почти невыполнимо: та же цена обещана за тот же портфель еще нескольким нелегальным группам.
    Чтобы справиться с работой, бывший агент ЦРУ по кличке "Сэм" и его наспех сколоченный отряд должны делать то, чего им не приходилось делать никогда раньше: довериться друг другу...-Качество исходника: BD-Remux 1080p (HDClub)
    Качество: BDRip
    Тип: 480p 720p
    Контейнер: m4v
    Видео: 640x360 анаморф 852x360 at 23.976 fps, MPEG-4 AVC, ~1600 kbps avg
    Видео: 1280x544 at 23.976 fps, MPEG-4 AVC, ~5000 kbps avg
    Аудио#1: Russian: 48 kHz, ААС, 2/0 (L,R), ~128.00 / 160.00 kbps avg |Дубляж, Невафильм|
    Аудио#2: Russian: 48 kHz, ААС, 2/0 (L,R), ~128.00 / 160.00 kbps avg |Многоголосый закадровый, R5|
    Аудио#3: Russian: 48 kHz, ААС, 2/0 (L,R), ~128.00 / 160.00 kbps avg |Многоголосый закадровый, LDV (С.Р.И. / Киномания)|
    Аудио#4: Russian: 48 kHz, ААС, 2/0 (L,R), ~128.00 / 160.00 kbps avg |Многоголосый закадровый, Многоголосый закадровый, FDV (Домашнее видео)|
    Аудио#5: Russian: 48 kHz, ААС, 2/0 (L,R), ~128.00 / 160.00 kbps avg |Многоголосый закадровый, Варус видео|
    Аудио#6: Russian: 48 kHz, ААС, 2/0 (L,R), ~128.00 / 160.00 kbps avg |Многоголосый закадровый, Лазер видео|
    Аудио#7: Russian: 48 kHz, ААС, 2/0 (L,R), ~128.00 / 160.00 kbps avg |Многоголосый закадровый, Первый Канал|
    Аудио#8: Russian: 48 kHz, ААС, 2/0 (L,R), ~128.00 / 160.00 kbps avg |Многоголосый закадровый, НТВ|
    Аудио#9: Russian: 48 kHz, ААС, 2/0 (L,R), ~128.00 / 160.00 kbps avg |Многоголосый закадровый, Союз Видео|
    Аудио#10: Russian: 48 kHz, ААС, 2/0 (L,R), ~128.00 / 160.00 kbps avg |Одноголосый закадровый, А. Гаврилов|
    Аудио#11: Russian: 48 kHz, ААС, 2/0 (L,R), ~128.00 / 160.00 kbps avg |Одноголосый закадровый, Д. Есарев|
    Аудио#12: Russian: 48 kHz, ААС, 2/0 (L,R), ~128.00 / 160.00 kbps avg |Одноголосый закадровый, Ю. Живов|
    Аудио#13: Russian: 48 kHz, ААС, 2/0 (L,R), ~128.00 / 160.00 kbps avg |Одноголосый закадровый, Е. Хрусталёв|
    Аудио#14: Russian: 48 kHz, ААС, 2/0 (L,R), ~128.00 / 160.00 kbps avg |Одноголосый закадровый, Диктор CDV|
    Аудио#15: Russian: 48 kHz, ААС, 2/0 (L,R), ~128.00 / 160.00 kbps avg |Одноголосый закадровый, А. Кашкин|
    Аудио#16: Russian: 48 kHz, ААС, 2/0 (L,R), ~128.00 / 160.00 kbps avg |Одноголосый закадровый, Н. Антонов|
    Аудио#17: Ukrainian: 48 kHz, ААС, 2/0 (L,R), ~128.00 / 160.00 kbps avg |Многоголосый закадровый, 2+2|
    Аудио#18: Ukrainian: 48 kHz, ААС, 2/0 (L,R), ~128.00 / 160.00 kbps avg |Многоголосый закадровый|
    Аудио#19: English: 48 kHz, ААС, 2/0 (L,R), ~128.00 / 160.00 kbps avg
    Аудио#20: Russian: 48 kHz, AC3, 3/2 (L,C,R,l,r) + LFE ch, ~640.00 kbps avg |Многоголосый закадровый, R5|
    Аудио#21: Russian: 48 kHz, AC3, 3/2 (L,C,R,l,r) + LFE ch, ~640.00 kbps avg |Многоголосый закадровый, LDV (С.Р.И./Киномания)|
    Аудио#22: Russian: 48 kHz, AC3, 3/2 (L,C,R,l,r) + LFE ch, ~640.00 kbps avg |Многоголосый закадровый, FDV (Домашнее видео)|
    Аудио#23: Russian: 48 kHz, AC3, 3/2 (L,C,R,l,r) + LFE ch, ~640.00 kbps avg |Одноголосый закадровый, А. Гаврилов|
    Аудио#24: Russian: 48 kHz, AC3, 3/2 (L,C,R,l,r) + LFE ch, ~640.00 kbps avg |Одноголосый закадровый, Д. Есарев| |
    Аудио#25: Russian: 48 kHz, AC3, 3/2 (L,C,R,l,r) + LFE ch, ~640.00 kbps avg |Одноголосый закадровый, Ю. Живов|
    Аудио#26: Russian: 48 kHz, AC3, 3/2 (L,C,R,l,r) + LFE ch, ~640.00 kbps avg |Одноголосый закадровый, Е. Хрусталёв|
    Аудио#27: Russian: 48 kHz, AC3, 3/2 (L,C,R,l,r) + LFE ch, ~384.00 kbps avg |Одноголосый закадровый, Диктор CDV|
    Аудио#28: Ukrainian: 48 kHz, AC3, 3/2 (L,C,R,l,r) + LFE ch, ~384.00 kbps avg |Многоголосый закадровый, 2+2|
    Аудио#29: Ukrainian: 48 kHz, AC3, 3/2 (L,C,R,l,r) + LFE ch, ~384.00 kbps avg |Многоголосый закадровый|
    Аудио#30: English: 48 kHz, AC3, 3/2 (L,C,R,l,r) + LFE ch, ~640.00 kbps avg
    Субтитры №1: English: |Форсированные|
    Субтитры №2: Russian: |Полные, R5|
    Субтитры №3: Russian: |Полные, Uncle KiLler|
    Субтитры №4: Russian: |Полные|
    Субтитры №5: Ukrainian: |Полные, R5|
    Субтитры №6: English: |Полные|-

    Знаете ли Вы, что...

    • Слово Ронин японского происхождения. Образовано оно из двух иероглифов-понятий, означающих волна и человек (единственный русский аналог этого слова — голь перекатная). Ронинами в средневековой Японии называли деклассированных самураев, большинство которых превращались в разбойников и наемных убийц. В японском фольклоре ронин, естественно, был героем — Робин Гудом местного разлива, благородным защитником угнетенных. О ронинах сочинялись романы, снимались фильмы. Акира Куросава воспел ронинов в «Семи самураях».
    • Сценарий Дж. Д. Зейка был приобретен за полмиллиона долларов кинокомпанией TriStar. В начале 1997 года его перекупила United Artists.
    • Сценарным доктором на проекте работал Дэвид Мамет. Он значительно переделал первоначальный сценарий, внеся серьезные изменения в характеры и диалоги персонажей. В результате этого разгорелись споры по поводу того, какое место должен занимать Мамет в титрах. Он же был согласен появится в титрах либо под псевдонимом, либо вообще там не значится. Дело закончилось тем, что в титрах были указаны Дж. Д. Зейк и загадочный Ричард Вайс (псевдоним Мамета).
    • Режиссер фильма Джон Франкенхаймер хотел пригласить на роль второго плана Джимона Хонсу, снявшегося до этого у Спилберга в «Амистаде», но продюсерам его выбор не понравился. Франкенхаймер также пытался пригласить Алека Болдуина, но тот отказался сниматься в Европе, так как не хотел расставаться с семьей.
    • Во время съемок было разбито 80 автомобилей.
    • В картине сыграли сразу три исполнителя злодеев в фильмах о Джеймсе Бонде: Майкл Лонсдейл, Шон Бин и Джонатан Прайс.
    • Главная музыкальная тема фильма исполнена на армянском дудуке.
    • Фигуристку Наташу Кириллову, двукратную олимпийскую чемпионку и трехкратную чемпионку мира, сыграла двукратная олимпийская чемпионка и четырехкратная чемпионка мира Катарина Уитт.

    -

    iTunes Meta Tags for country us

    Name: Ronin
    Artist: John Frankenheimer
    Genre: Thriller
    Release Date: 1998-09-12T08:00:00Z
    Description: Хотя холодная война давно закончена, тайные наемники, чьи навыки в слежке, шпионаже и силовых схватках буквально легендарны, остаются востребованными при новом мировом порядке и всегда находят высокооплачиваемую работу. Некий таинственный клиент собирает в Париже команду таких "платных оперативников", известных как "Ронины", для похищения сверхсекретного портфеля...
    Long Description: Хотя холодная война давно закончена, тайные наемники, чьи навыки в слежке, шпионаже и силовых схватках буквально легендарны, остаются востребованными при новом мировом порядке и всегда находят высокооплачиваемую работу. Некий таинственный клиент собирает в Париже команду таких "платных оперативников", известных как "Ронины", для похищения сверхсекретного портфеля.
    Вскоре выясняется, что это, на первый взгляд простое, задание почти невыполнимо: та же цена обещана за тот же портфель еще нескольким нелегальным группам.
    Чтобы справиться с работой, бывший агент ЦРУ по кличке "Сэм" и его наспех сколоченный отряд должны делать то, чего им не приходилось делать никогда раньше: довериться друг другу...
    Rating: R
    Rating Annotation: Rated R For strong violence and some language.
    Studio: MGM
    Cast: Роберт Де Ниро, Жан Рено, Наташа МакЭлхоун, Стеллан Скарсгард, Шон Бин, Скипп Саддат, Микаэль Лонсдаль, Ян Триска, Джонатан Прайс, Рон Перкинс
    Director: Джон Франкенхаймер
    Producers: Фрэнк Манкузо мл., Пол Келменсон, Этель Уинант
    Screenwriters: Дж. Д. Зайк, Дэвид Мэмет
    Copyright: © 1998 United Artists Pictures, Inc. All Rights Reserved.
    contentID: 220257443
    XID: Apple:vendor_id:1998-5221
    Sort Name: Ronin

    MediaInfo 480p Release

    General
    Complete name : Ronin.m4v
    Format : MPEG-4
    Codec ID : M4V  (M4V /M4A /mp42/isom)
    File size : 3.39 GiB
    Duration : 2h 1mn
    Overall bit rate mode : Variable
    Overall bit rate : 3 993 Kbps
    Movie name : Ronin
    Performer : John Frankenheimer
    Director : Джон Франкенхаймер
    Actor : Роберт Де Ниро / Жан Рено / Наташа МакЭлхоун / Стеллан Скарсгард / Шон Бин / Скипп Саддат / Микаэль Лонсдаль / Ян Триска / Джонатан Прайс / Рон Перкинс
    Screenplay by : Дж. Д. Зайк / Дэвид Мэмет
    Producer : Фрэнк Манкузо мл. / Пол Келменсон / Этель Уинант
    Production studio : MGM
    Genre : Thriller
    ContentType : Short Film
    Description : Хотя холодная война давно закончена, тайные наемники, чьи навыки в слежке, шпионаже и силовых схватках буквально легендарны, остаются востребованными при новом мировом порядке и всегда находят высокооплачиваемую работу. Некий таинственный клиент собирает в Париже команду таких "платных оперативников", известных как "Ронины", для похищения сверхсекретного портфеля...
    Recorded date : UTC 1998-09-12 08:00:00
    Encoded date : UTC 2016-04-04 08:46:05
    Tagged date : UTC 2016-04-08 07:53:48
    Copyright : © 1998 United Artists Pictures, Inc. All Rights Reserved.
    Cover : Yes
    Rating : None
    Title/Sort : Ronin
    LongDescription : Хотя холодная война давно закончена, тайные наемники, чьи навыки в слежке, шпионаже и силовых схватках буквально легендарны, остаются востребованными при новом мировом порядке и всегда находят высокооплачиваемую работу. Некий таинственный клиент собирает в Париже команду таких "платных оперативников", известных как "Ронины", для похищения сверхсекретного портфеля. / Вскоре выясняется, что это, на первый взгляд простое, задание почти невыполнимо: та же цена обещана за тот же портфель еще нескольким нелегальным группам. / Чтобы справиться с работой, бывший агент ЦРУ по кличке "Сэм" и его наспех сколоченный отряд должны делать то, чего им не приходилось делать никогда раньше: довериться друг другу...
    AppleStoreCatalogID : 220257443
    Vendor : Apple:vendor_id:1998-5221
    ContentRating : mpaa|R|400|Rated R For strong violence and some language.
    Video #1
    ID : 1
    Format : AVC
    Format/Info : Advanced Video Codec
    Format profile : Baseline@L3
    Format settings, CABAC : No
    Format settings, ReFrames : 2 frames
    Codec ID : avc1
    Codec ID/Info : Advanced Video Coding
    Duration : 2h 1mn
    Bit rate : 1 600 Kbps
    Width : 640 pixels
    Height : 360 pixels
    Display aspect ratio : 2.35:1
    Original display aspect ratio : 2.35:1
    Frame rate mode : Variable
    Frame rate : 23.976 (24000/1001) fps
    Minimum frame rate : 23.974 fps
    Maximum frame rate : 23.981 fps
    Color space : YUV
    Chroma subsampling : 4:2:0
    Bit depth : 8 bits
    Scan type : Progressive
    Bits/(Pixel*Frame) : 0.290
    Stream size : 1.36 GiB (40%)
    Title : Main Program
    Writing library : x264 core 130 r2273 b3065e6
    Encoding settings : cabac=0 / ref=2 / deblock=1:0:0 / analyse=0x1:0x111 / me=umh / subme=6 / psy=1 / psy_rd=1.00:0.00 / mixed_ref=1 / me_range=16 / chroma_me=1 / trellis=0 / 8x8dct=0 / cqm=0 / deadzone=21,11 / fast_pskip=1 / chroma_qp_offset=-2 / threads=18 / lookahead_threads=2 / sliced_threads=0 / nr=0 / decimate=1 / interlaced=0 / bluray_compat=0 / constrained_intra=0 / bframes=0 / weightp=0 / keyint=240 / keyint_min=24 / scenecut=40 / intra_refresh=0 / rc_lookahead=40 / rc=2pass / mbtree=1 / bitrate=1600 / ratetol=1.0 / qcomp=0.60 / qpmin=0 / qpmax=69 / qpstep=4 / cplxblur=20.0 / qblur=0.5 / vbv_maxrate=5000 / vbv_bufsize=5000 / nal_hrd=none / ip_ratio=1.40 / aq=1:1.00
    Language : English
    Encoded date : UTC 2016-04-04 08:46:06
    Tagged date : UTC 2016-04-04 08:46:10
    Color range : Limited
    Color primaries : BT.709
    Transfer characteristics : BT.709
    Matrix coefficients : BT.709
    Menus : 27,28
    Video #2
    ID : 28
    Format : JPEG
    Codec ID : jpeg
    Duration : 2h 1mn
    Bit rate mode : Variable
    Bit rate : 1 164 bps
    Width : 640 pixels
    Height : 270 pixels
    Display aspect ratio : 2.40:1
    Frame rate mode : Variable
    Frame rate : 0.004 fps
    Minimum frame rate : 0.002 fps
    Maximum frame rate : 0.017 fps
    Color space : YUV
    Chroma subsampling : 4:2:0
    Bit depth : 8 bits
    Compression mode : Lossy
    Bits/(Pixel*Frame) : 1.684
    Stream size : 1.11 MiB (0%)
    Title : Chapter Images
    Language : English
    Default : No
    Encoded date : UTC 2016-04-08 07:02:14
    Tagged date : UTC 2016-04-08 07:02:14
    Menu For : 1
    Audio #1
    ID : 2
    Format : AAC
    Format/Info : Advanced Audio Codec
    Format profile : LC
    Codec ID : 40
    Duration : 2h 1mn
    Bit rate mode : Variable
    Bit rate : 102 Kbps
    Maximum bit rate : 112 Kbps
    Channel(s) : 2 channels
    Channel positions : Front: L R
    Sampling rate : 48.0 KHz
    Frame rate : 46.875 fps (1024 spf)
    Compression mode : Lossy
    Stream size : 88.9 MiB (3%)
    Title : Russian DUB Nevafilm Stereo
    Language : Russian
    Default : Yes
    Alternate group : 1
    Encoded date : UTC 2016-04-04 08:46:06
    Tagged date : UTC 2016-04-04 08:46:15
    Menus : 27
    Audio #2
    ID : 3
    Format : AAC
    Format/Info : Advanced Audio Codec
    Format profile : LC
    Codec ID : 40
    Duration : 2h 1mn
    Bit rate mode : Variable
    Bit rate : 132 Kbps
    Maximum bit rate : 229 Kbps
    Channel(s) : 2 channels
    Channel positions : Front: L R
    Sampling rate : 48.0 KHz
    Frame rate : 46.875 fps (1024 spf)
    Compression mode : Lossy
    Stream size : 115 MiB (3%)
    Title : Russian MVO R5 Stereo
    Language : Russian
    Default : No
    Alternate group : 1
    Encoded date : UTC 2016-04-04 08:46:06
    Tagged date : UTC 2016-04-04 08:46:15
    Audio #3
    ID : 4
    Format : AAC
    Format/Info : Advanced Audio Codec
    Format profile : LC
    Codec ID : 40
    Duration : 2h 1mn
    Bit rate mode : Variable
    Bit rate : 132 Kbps
    Maximum bit rate : 229 Kbps
    Channel(s) : 2 channels
    Channel positions : Front: L R
    Sampling rate : 48.0 KHz
    Frame rate : 46.875 fps (1024 spf)
    Compression mode : Lossy
    Stream size : 115 MiB (3%)
    Title : Russian MVO LDV (S.R.I. / Kinomaniya) Stereo
    Language : Russian
    Default : No
    Alternate group : 1
    Encoded date : UTC 2016-04-04 09:11:27
    Tagged date : UTC 2016-04-04 09:11:32
    Audio #4
    ID : 5
    Format : AAC
    Format/Info : Advanced Audio Codec
    Format profile : LC
    Codec ID : 40
    Duration : 2h 1mn
    Bit rate mode : Variable
    Bit rate : 132 Kbps
    Maximum bit rate : 229 Kbps
    Channel(s) : 2 channels
    Channel positions : Front: L R
    Sampling rate : 48.0 KHz
    Frame rate : 46.875 fps (1024 spf)
    Compression mode : Lossy
    Stream size : 115 MiB (3%)
    Title : Russian MVO FDV (Home Video) Stereo
    Language : Russian
    Default : No
    Alternate group : 1
    Encoded date : UTC 2016-04-04 10:02:11
    Tagged date : UTC 2016-04-04 10:02:16
    Audio #5
    ID : 6
    Format : AAC
    Format/Info : Advanced Audio Codec
    Format profile : LC
    Codec ID : 40
    Duration : 2h 1mn
    Bit rate mode : Variable
    Bit rate : 132 Kbps
    Maximum bit rate : 196 Kbps
    Channel(s) : 2 channels
    Channel positions : Front: L R
    Sampling rate : 48.0 KHz
    Frame rate : 46.875 fps (1024 spf)
    Compression mode : Lossy
    Stream size : 114 MiB (3%)
    Title : Russian MVO Varus Video Stereo
    Language : Russian
    Default : No
    Alternate group : 1
    Encoded date : UTC 2016-04-04 10:56:19
    Tagged date : UTC 2016-04-04 10:56:24
    Audio #6
    ID : 7
    Format : AAC
    Format/Info : Advanced Audio Codec
    Format profile : LC
    Codec ID : 40
    Duration : 2h 1mn
    Bit rate mode : Variable
    Bit rate : 132 Kbps
    Maximum bit rate : 218 Kbps
    Channel(s) : 2 channels
    Channel positions : Front: L R
    Sampling rate : 48.0 KHz
    Frame rate : 46.875 fps (1024 spf)
    Compression mode : Lossy
    Stream size : 114 MiB (3%)
    Title : Russian MVO Lazer Video Stereo
    Language : Russian
    Default : No
    Alternate group : 1
    Encoded date : UTC 2016-04-04 11:18:21
    Tagged date : UTC 2016-04-04 11:18:26
    Audio #7
    ID : 8
    Format : AAC
    Format/Info : Advanced Audio Codec
    Format profile : LC
    Codec ID : 40
    Duration : 2h 1mn
    Bit rate mode : Variable
    Bit rate : 109 Kbps
    Maximum bit rate : 207 Kbps
    Channel(s) : 2 channels
    Channel positions : Front: L R
    Sampling rate : 48.0 KHz
    Frame rate : 46.875 fps (1024 spf)
    Compression mode : Lossy
    Stream size : 94.5 MiB (3%)
    Title : Russian MVO 1 Channel Stereo
    Language : Russian
    Default : No
    Alternate group : 1
    Encoded date : UTC 2016-04-04 11:40:34
    Tagged date : UTC 2016-04-04 11:40:39
    Audio #8
    ID : 9
    Format : AAC
    Format/Info : Advanced Audio Codec
    Format profile : LC
    Codec ID : 40
    Duration : 2h 1mn
    Bit rate mode : Variable
    Bit rate : 104 Kbps
    Maximum bit rate : 120 Kbps
    Channel(s) : 2 channels
    Channel positions : Front: L R
    Sampling rate : 48.0 KHz
    Frame rate : 46.875 fps (1024 spf)
    Compression mode : Lossy
    Stream size : 90.2 MiB (3%)
    Title : Russian MVO HTB Stereo
    Language : Russian
    Default : No
    Alternate group : 1
    Encoded date : UTC 2016-04-04 11:56:48
    Tagged date : UTC 2016-04-04 11:56:53
    Audio #9
    ID : 10
    Format : AAC
    Format/Info : Advanced Audio Codec
    Format profile : LC
    Codec ID : 40
    Duration : 2h 1mn
    Bit rate mode : Variable
    Bit rate : 115 Kbps
    Maximum bit rate : 137 Kbps
    Channel(s) : 2 channels
    Channel positions : Front: L R
    Sampling rate : 48.0 KHz
    Frame rate : 46.875 fps (1024 spf)
    Compression mode : Lossy
    Stream size : 99.9 MiB (3%)
    Title : Russian MVO Souz Video Stereo
    Language : Russian
    Default : No
    Alternate group : 1
    Encoded date : UTC 2016-04-04 13:48:11
    Tagged date : UTC 2016-04-04 13:48:17
    Audio #10
    ID : 11
    Format : AAC
    Format/Info : Advanced Audio Codec
    Format profile : LC
    Codec ID : 40
    Duration : 2h 1mn
    Bit rate mode : Variable
    Bit rate : 132 Kbps
    Maximum bit rate : 229 Kbps
    Channel(s) : 2 channels
    Channel positions : Front: L R
    Sampling rate : 48.0 KHz
    Frame rate : 46.875 fps (1024 spf)
    Compression mode : Lossy
    Stream size : 115 MiB (3%)
    Title : Russian AVO A.Gavrilov Stereo
    Language : Russian
    Default : No
    Alternate group : 1
    Encoded date : UTC 2016-04-04 14:18:52
    Tagged date : UTC 2016-04-04 14:18:57
    Audio #11
    ID : 12
    Format : AAC
    Format/Info : Advanced Audio Codec
    Format profile : LC
    Codec ID : 40
    Duration : 2h 1mn
    Bit rate mode : Variable
    Bit rate : 132 Kbps
    Maximum bit rate : 229 Kbps
    Channel(s) : 2 channels
    Channel positions : Front: L R
    Sampling rate : 48.0 KHz
    Frame rate : 46.875 fps (1024 spf)
    Compression mode : Lossy
    Stream size : 115 MiB (3%)
    Title : Russian AVO D.Esarev Stereo
    Language : Russian
    Default : No
    Alternate group : 1
    Encoded date : UTC 2016-04-04 19:50:45
    Tagged date : UTC 2016-04-04 19:50:50
    Audio #12
    ID : 13
    Format : AAC
    Format/Info : Advanced Audio Codec
    Format profile : LC
    Codec ID : 40
    Duration : 2h 1mn
    Bit rate mode : Variable
    Bit rate : 132 Kbps
    Maximum bit rate : 229 Kbps
    Channel(s) : 2 channels
    Channel positions : Front: L R
    Sampling rate : 48.0 KHz
    Frame rate : 46.875 fps (1024 spf)
    Compression mode : Lossy
    Stream size : 115 MiB (3%)
    Title : Russian AVO U.Zhivov Stereo
    Language : Russian
    Default : No
    Alternate group : 1
    Encoded date : UTC 2016-04-04 21:02:27
    Tagged date : UTC 2016-04-04 21:02:32
    Audio #13
    ID : 14
    Format : AAC
    Format/Info : Advanced Audio Codec
    Format profile : LC
    Codec ID : 40
    Duration : 2h 1mn
    Bit rate mode : Variable
    Bit rate : 132 Kbps
    Maximum bit rate : 229 Kbps
    Channel(s) : 2 channels
    Channel positions : Front: L R
    Sampling rate : 48.0 KHz
    Frame rate : 46.875 fps (1024 spf)
    Compression mode : Lossy
    Stream size : 115 MiB (3%)
    Title : Russian AVO E.Khustalev Stereo
    Language : Russian
    Default : No
    Alternate group : 1
    Encoded date : UTC 2016-04-07 07:46:43
    Tagged date : UTC 2016-04-07 07:46:48
    Audio #14
    ID : 15
    Format : AAC
    Format/Info : Advanced Audio Codec
    Format profile : LC
    Codec ID : 40
    Duration : 2h 1mn
    Bit rate mode : Variable
    Bit rate : 132 Kbps
    Maximum bit rate : 220 Kbps
    Channel(s) : 2 channels
    Channel positions : Front: L R
    Sampling rate : 48.0 KHz
    Frame rate : 46.875 fps (1024 spf)
    Compression mode : Lossy
    Stream size : 114 MiB (3%)
    Title : Russian AVO Dictor CDV Stereo
    Language : Russian
    Default : No
    Alternate group : 1
    Encoded date : UTC 2016-04-07 09:25:50
    Tagged date : UTC 2016-04-07 09:25:56
    Audio #15
    ID : 16
    Format : AAC
    Format/Info : Advanced Audio Codec
    Format profile : LC
    Codec ID : 40
    Duration : 2h 1mn
    Bit rate mode : Variable
    Bit rate : 108 Kbps
    Maximum bit rate : 184 Kbps
    Channel(s) : 2 channels
    Channel positions : Front: L R
    Sampling rate : 48.0 KHz
    Frame rate : 46.875 fps (1024 spf)
    Compression mode : Lossy
    Stream size : 93.8 MiB (3%)
    Title : Russian AVO A.Kashkin Stereo
    Language : Russian
    Default : No
    Alternate group : 1
    Encoded date : UTC 2016-04-07 12:43:11
    Tagged date : UTC 2016-04-07 12:44:02
    Audio #16
    ID : 17
    Format : AAC
    Format/Info : Advanced Audio Codec
    Format profile : LC
    Codec ID : 40
    Duration : 2h 1mn
    Bit rate mode : Variable
    Bit rate : 107 Kbps
    Maximum bit rate : 205 Kbps
    Channel(s) : 2 channels
    Channel positions : Front: L R
    Sampling rate : 48.0 KHz
    Frame rate : 46.875 fps (1024 spf)
    Compression mode : Lossy
    Stream size : 93.3 MiB (3%)
    Title : Russian AVO N.Antonov Stereo
    Language : Russian
    Default : No
    Alternate group : 1
    Encoded date : UTC 2016-04-07 12:43:11
    Tagged date : UTC 2016-04-07 12:44:02
    Audio #17
    ID : 18
    Format : AAC
    Format/Info : Advanced Audio Codec
    Format profile : LC
    Codec ID : 40
    Duration : 2h 1mn
    Bit rate mode : Variable
    Bit rate : 132 Kbps
    Maximum bit rate : 219 Kbps
    Channel(s) : 2 channels
    Channel positions : Front: L R
    Sampling rate : 48.0 KHz
    Frame rate : 46.875 fps (1024 spf)
    Compression mode : Lossy
    Stream size : 114 MiB (3%)
    Title : Ukrainian MVO 2+2 Stereo
    Language : Ukrainian
    Default : No
    Alternate group : 1
    Encoded date : UTC 2016-04-07 12:43:11
    Tagged date : UTC 2016-04-07 12:44:02
    Audio #18
    ID : 19
    Format : AAC
    Format/Info : Advanced Audio Codec
    Format profile : LC
    Codec ID : 40
    Duration : 2h 1mn
    Bit rate mode : Variable
    Bit rate : 130 Kbps
    Maximum bit rate : 220 Kbps
    Channel(s) : 2 channels
    Channel positions : Front: L R
    Sampling rate : 48.0 KHz
    Frame rate : 46.875 fps (1024 spf)
    Compression mode : Lossy
    Stream size : 113 MiB (3%)
    Title : Ukrainian MVO Stereo
    Language : Ukrainian
    Default : No
    Alternate group : 1
    Encoded date : UTC 2016-04-07 12:43:11
    Tagged date : UTC 2016-04-07 12:44:02
    Audio #19
    ID : 20
    Format : AAC
    Format/Info : Advanced Audio Codec
    Format profile : LC
    Codec ID : 40
    Duration : 2h 1mn
    Bit rate mode : Variable
    Bit rate : 132 Kbps
    Maximum bit rate : 229 Kbps
    Channel(s) : 2 channels
    Channel positions : Front: L R
    Sampling rate : 48.0 KHz
    Frame rate : 46.875 fps (1024 spf)
    Compression mode : Lossy
    Stream size : 115 MiB (3%)
    Title : English Stereo
    Language : English
    Default : No
    Alternate group : 1
    Encoded date : UTC 2016-04-07 12:43:11
    Tagged date : UTC 2016-04-07 12:44:02
    Subtitles : 21,26
    Text #1
    ID : 21
    Format : Timed Text
    Muxing mode : sbtl
    Codec ID : tx3g
    Duration : 1h 52mn
    Bit rate mode : Variable
    Bit rate : 4 bps
    Stream size : 3.10 KiB (0%)
    Title : English Forced Subtitle
    Language : English
    Default : Yes
    Forced : Mixed
    Alternate group : 2
    Encoded date : UTC 2016-04-08 06:56:52
    Tagged date : UTC 2016-04-08 06:56:52
    Subtitles For : 20
    Full Alternative : 26
    Text #2
    ID : 22
    Format : Timed Text
    Muxing mode : sbtl
    Codec ID : tx3g
    Duration : 1h 57mn
    Bit rate mode : Variable
    Bit rate : 58 bps
    Stream size : 50.4 KiB (0%)
    Title : Russian R5 Subtitle
    Language : Russian
    Default : No
    Forced : No
    Alternate group : 2
    Encoded date : UTC 2016-04-08 07:01:33
    Tagged date : UTC 2016-04-08 07:01:33
    Text #3
    ID : 23
    Format : Timed Text
    Muxing mode : sbtl
    Codec ID : tx3g
    Duration : 1h 57mn
    Bit rate mode : Variable
    Bit rate : 61 bps
    Stream size : 52.2 KiB (0%)
    Title : Russian Uncle KiLler Subtitle
    Language : Russian
    Default : No
    Forced : No
    Alternate group : 2
    Encoded date : UTC 2016-04-08 07:01:33
    Tagged date : UTC 2016-04-08 07:01:33
    Text #4
    ID : 24
    Format : Timed Text
    Muxing mode : sbtl
    Codec ID : tx3g
    Duration : 1h 56mn
    Bit rate mode : Variable
    Bit rate : 58 bps
    Stream size : 49.3 KiB (0%)
    Title : Russian Subtitle
    Language : Russian
    Default : No
    Forced : No
    Alternate group : 2
    Encoded date : UTC 2016-04-08 07:01:33
    Tagged date : UTC 2016-04-08 07:01:33
    Text #5
    ID : 25
    Format : Timed Text
    Muxing mode : sbtl
    Codec ID : tx3g
    Duration : 1h 57mn
    Bit rate mode : Variable
    Bit rate : 56 bps
    Stream size : 48.7 KiB (0%)
    Title : Ukrainian R5 Subtitle
    Language : Ukrainian
    Default : No
    Forced : No
    Alternate group : 2
    Encoded date : UTC 2016-04-08 07:01:33
    Tagged date : UTC 2016-04-08 07:01:33
    Text #6
    ID : 26
    Format : Timed Text
    Muxing mode : sbtl
    Codec ID : tx3g
    Duration : 1h 56mn
    Bit rate mode : Variable
    Bit rate : 39 bps
    Stream size : 33.4 KiB (0%)
    Title : English Subtitle
    Language : English
    Default : No
    Forced : No
    Alternate group : 2
    Encoded date : UTC 2016-04-08 07:01:33
    Tagged date : UTC 2016-04-08 07:01:33
    Subtitles For : 20
    Forced Alternative : 21
    Menu #1
    00:00:00.000 : Start
    00:07:01.796 : Team Dynamics
    00:10:28.961 : Botched Exchange
    00:15:23.339 : New Negotiations
    00:17:22.082 : Photographic Study
    00:18:55.050 : Remote Sensor Tracking
    00:24:12.784 : In Search Of Gregor
    00:26:20.662 : Answering To The Boss
    00:27:20.138 : Those Who Wait...
    00:31:22.171 : The Link To The Case
    00:33:54.490 : Ice-Skating Gala
    00:39:19.899 : Farewell
    00:41:19.351 : Bull's-Eye Bombing
    00:45:21.719 : Chasing The Target
    00:49:51.238 : Crashing The Case
    00:51:35.842 : Spiritual Doctor
    00:54:35.563 : "Life Is Uncertain"
    00:57:32.240 : Gregor's Icy Ring
    00:58:53.238 : "I Need Your Help!"
    01:01:21.344 : The Arena Massacre
    01:09:04.598 : Directing Surgery
    01:14:48.275 : Seamus' Hostility
    01:20:06.051 : Masterless Samurai
    01:24:01.494 : Fragile Hesitation
    01:27:05.345 : Chases To Die For
    01:35:04.323 : A Questionable Case
    01:39:31.924 : Scary Ice Skating
    01:45:25.110 : Gregor's Gunned Down
    01:49:22.264 : A Frenzy Of Fleeing
    01:51:49.411 : Showdown With Seamus
    01:53:46.402 : "Peaceful" Closure
    01:56:02.580 : Credits
    Menu #2
    ID : 27
    Codec ID : text
    Duration : 2h 1mn
    Title : Chapter Titles
    Language : English
    Encoded date : UTC 2016-04-08 07:02:00
    Tagged date : UTC 2016-04-08 07:02:00
    Menu For : 2,1
    00:00:00.000 : Start
    00:07:01.796 : Team Dynamics
    00:10:28.961 : Botched Exchange
    00:15:23.339 : New Negotiations
    00:17:22.082 : Photographic Study
    00:18:55.050 : Remote Sensor Tracking
    00:24:12.784 : In Search Of Gregor
    00:26:20.662 : Answering To The Boss
    00:27:20.138 : Those Who Wait...
    00:31:22.171 : The Link To The Case
    00:33:54.490 : Ice-Skating Gala
    00:39:19.899 : Farewell
    00:41:19.351 : Bull's-Eye Bombing
    00:45:21.719 : Chasing The Target
    00:49:51.238 : Crashing The Case
    00:51:35.842 : Spiritual Doctor
    00:54:35.563 : "Life Is Uncertain"
    00:57:32.240 : Gregor's Icy Ring
    00:58:53.238 : "I Need Your Help!"
    01:01:21.344 : The Arena Massacre
    01:09:04.598 : Directing Surgery
    01:14:48.275 : Seamus' Hostility
    01:20:06.051 : Masterless Samurai
    01:24:01.494 : Fragile Hesitation
    01:27:05.345 : Chases To Die For
    01:35:04.323 : A Questionable Case
    01:39:31.924 : Scary Ice Skating
    01:45:25.110 : Gregor's Gunned Down
    01:49:22.264 : A Frenzy Of Fleeing
    01:51:49.411 : Showdown With Seamus
    01:53:46.402 : "Peaceful" Closure
    01:56:02.580 : Credits
    Bit rate mode : VBR

    MediaInfo 720p Release

    General
    Complete name : Ronin (HD).m4v
    Format : MPEG-4
    Codec ID : M4V  (M4V /M4A /mp42/isom)
    File size : 12.1 GiB
    Duration : 2h 1mn
    Overall bit rate mode : Variable
    Overall bit rate : 14.3 Mbps
    Movie name : Ronin
    Performer : John Frankenheimer
    Director : Джон Франкенхаймер
    Actor : Роберт Де Ниро / Жан Рено / Наташа МакЭлхоун / Стеллан Скарсгард / Шон Бин / Скипп Саддат / Микаэль Лонсдаль / Ян Триска / Джонатан Прайс / Рон Перкинс
    Screenplay by : Дж. Д. Зайк / Дэвид Мэмет
    Producer : Фрэнк Манкузо мл. / Пол Келменсон / Этель Уинант
    Production studio : MGM
    Genre : Thriller
    ContentType : Short Film
    Description : Хотя холодная война давно закончена, тайные наемники, чьи навыки в слежке, шпионаже и силовых схватках буквально легендарны, остаются востребованными при новом мировом порядке и всегда находят высокооплачиваемую работу. Некий таинственный клиент собирает в Париже команду таких "платных оперативников", известных как "Ронины", для похищения сверхсекретного портфеля...
    Recorded date : UTC 1998-09-12 08:00:00
    Encoded date : UTC 2016-04-04 06:38:36
    Tagged date : UTC 2016-04-08 08:10:36
    Copyright : © 1998 United Artists Pictures, Inc. All Rights Reserved.
    Cover : Yes
    Rating : None
    Title/Sort : Ronin
    LongDescription : Хотя холодная война давно закончена, тайные наемники, чьи навыки в слежке, шпионаже и силовых схватках буквально легендарны, остаются востребованными при новом мировом порядке и всегда находят высокооплачиваемую работу. Некий таинственный клиент собирает в Париже команду таких "платных оперативников", известных как "Ронины", для похищения сверхсекретного портфеля. / Вскоре выясняется, что это, на первый взгляд простое, задание почти невыполнимо: та же цена обещана за тот же портфель еще нескольким нелегальным группам. / Чтобы справиться с работой, бывший агент ЦРУ по кличке "Сэм" и его наспех сколоченный отряд должны делать то, чего им не приходилось делать никогда раньше: довериться друг другу...
    HDVideo : Yes
    AppleStoreCatalogID : 220257443
    Vendor : Apple:vendor_id:1998-5221
    ContentRating : mpaa|R|400|Rated R For strong violence and some language.
    Video #1
    ID : 1
    Format : AVC
    Format/Info : Advanced Video Codec
    Format profile : High@L3.1
    Format settings, CABAC : No
    Format settings, ReFrames : 3 frames
    Codec ID : avc1
    Codec ID/Info : Advanced Video Coding
    Duration : 2h 1mn
    Source duration : 2h 1mn
    Bit rate : 5 000 Kbps
    Width : 1 280 pixels
    Height : 544 pixels
    Display aspect ratio : 2.35:1
    Frame rate mode : Variable
    Frame rate : 23.976 (24000/1001) fps
    Minimum frame rate : 23.974 fps
    Maximum frame rate : 23.981 fps
    Color space : YUV
    Chroma subsampling : 4:2:0
    Bit depth : 8 bits
    Scan type : Progressive
    Bits/(Pixel*Frame) : 0.299
    Stream size : 4.24 GiB (35%)
    Source stream size : 4.24 GiB (35%)
    Title : Main Program
    Writing library : x264 core 130 r2273 b3065e6
    Encoding settings : cabac=0 / ref=3 / deblock=1:-3:-2 / analyse=0x3:0x113 / me=umh / subme=9 / psy=1 / psy_rd=0.80:0.25 / mixed_ref=1 / me_range=32 / chroma_me=1 / trellis=0 / 8x8dct=1 / cqm=0 / deadzone=6,6 / fast_pskip=0 / chroma_qp_offset=-2 / threads=18 / lookahead_threads=1 / sliced_threads=0 / nr=0 / decimate=0 / interlaced=0 / bluray_compat=0 / constrained_intra=0 / bframes=3 / b_pyramid=0 / b_adapt=2 / b_bias=0 / direct=1 / weightb=0 / open_gop=0 / weightp=0 / keyint=240 / keyint_min=24 / scenecut=40 / intra_refresh=0 / rc_lookahead=40 / rc=2pass / mbtree=1 / bitrate=5000 / ratetol=1.0 / qcomp=0.80 / qpmin=0 / qpmax=69 / qpstep=4 / cplxblur=20.0 / qblur=0.5 / vbv_maxrate=9500 / vbv_bufsize=9500 / nal_hrd=none / ip_ratio=1.10 / aq=1:0.50
    Language : English
    Encoded date : UTC 2016-04-04 06:38:36
    Tagged date : UTC 2016-04-04 06:38:51
    Color range : Limited
    Color primaries : BT.709
    Transfer characteristics : BT.709
    Matrix coefficients : BT.709
    Menus : 38,39
    Video #2
    ID : 39
    Format : JPEG
    Codec ID : jpeg
    Duration : 2h 1mn
    Bit rate mode : Variable
    Bit rate : 1 266 bps
    Width : 640 pixels
    Height : 272 pixels
    Display aspect ratio : 2.35:1
    Frame rate mode : Variable
    Frame rate : 0.004 fps
    Minimum frame rate : 0.002 fps
    Maximum frame rate : 0.017 fps
    Color space : YUV
    Chroma subsampling : 4:2:0
    Bit depth : 8 bits
    Compression mode : Lossy
    Bits/(Pixel*Frame) : 1.818
    Stream size : 1.21 MiB (0%)
    Title : Chapter Images
    Language : English
    Default : No
    Encoded date : UTC 2016-04-08 07:02:22
    Tagged date : UTC 2016-04-08 07:02:22
    Menu For : 1
    Audio #1
    ID : 2
    Format : AAC
    Format/Info : Advanced Audio Codec
    Format profile : LC
    Codec ID : 40
    Duration : 2h 1mn
    Bit rate mode : Variable
    Bit rate : 124 Kbps
    Maximum bit rate : 133 Kbps
    Channel(s) : 2 channels
    Channel positions : Front: L R
    Sampling rate : 48.0 KHz
    Frame rate : 46.875 fps (1024 spf)
    Compression mode : Lossy
    Stream size : 108 MiB (1%)
    Title : Russian DUB Nevafilm Stereo
    Language : Russian
    Default : Yes
    Alternate group : 1
    Encoded date : UTC 2016-04-04 06:38:36
    Tagged date : UTC 2016-04-04 06:38:54
    Menus : 38
    Audio #2
    ID : 3
    Format : AAC
    Format/Info : Advanced Audio Codec
    Format profile : LC
    Codec ID : 40
    Duration : 2h 1mn
    Bit rate mode : Variable
    Bit rate : 165 Kbps
    Maximum bit rate : 280 Kbps
    Channel(s) : 2 channels
    Channel positions : Front: L R
    Sampling rate : 48.0 KHz
    Frame rate : 46.875 fps (1024 spf)
    Compression mode : Lossy
    Stream size : 144 MiB (1%)
    Title : Russian MVO R5 Stereo
    Language : Russian
    Default : No
    Alternate group : 1
    Encoded date : UTC 2016-04-04 07:39:40
    Tagged date : UTC 2016-04-04 07:39:45
    Fallback From : 21
    Audio #3
    ID : 4
    Format : AAC
    Format/Info : Advanced Audio Codec
    Format profile : LC
    Codec ID : 40
    Duration : 2h 1mn
    Bit rate mode : Variable
    Bit rate : 165 Kbps
    Maximum bit rate : 280 Kbps
    Channel(s) : 2 channels
    Channel positions : Front: L R
    Sampling rate : 48.0 KHz
    Frame rate : 46.875 fps (1024 spf)
    Compression mode : Lossy
    Stream size : 144 MiB (1%)
    Title : Russian MVO LDV (S.R.I. / Kinomaniya) Stereo
    Language : Russian
    Default : No
    Alternate group : 1
    Encoded date : UTC 2016-04-04 09:09:24
    Tagged date : UTC 2016-04-04 09:09:29
    Fallback From : 22
    Audio #4
    ID : 5
    Format : AAC
    Format/Info : Advanced Audio Codec
    Format profile : LC
    Codec ID : 40
    Duration : 2h 1mn
    Bit rate mode : Variable
    Bit rate : 165 Kbps
    Maximum bit rate : 280 Kbps
    Channel(s) : 2 channels
    Channel positions : Front: L R
    Sampling rate : 48.0 KHz
    Frame rate : 46.875 fps (1024 spf)
    Compression mode : Lossy
    Stream size : 144 MiB (1%)
    Title : Russian MVO FDV (Home Video) Stereo
    Language : Russian
    Default : No
    Alternate group : 1
    Encoded date : UTC 2016-04-04 10:04:30
    Tagged date : UTC 2016-04-04 10:04:35
    Fallback From : 23
    Audio #5
    ID : 6
    Format : AAC
    Format/Info : Advanced Audio Codec
    Format profile : LC
    Codec ID : 40
    Duration : 2h 1mn
    Bit rate mode : Variable
    Bit rate : 164 Kbps
    Maximum bit rate : 234 Kbps
    Channel(s) : 2 channels
    Channel positions : Front: L R
    Sampling rate : 48.0 KHz
    Frame rate : 46.875 fps (1024 spf)
    Compression mode : Lossy
    Stream size : 143 MiB (1%)
    Title : Russian MVO Varus Video Stereo
    Language : Russian
    Default : No
    Alternate group : 1
    Encoded date : UTC 2016-04-04 10:54:28
    Tagged date : UTC 2016-04-04 10:54:33
    Audio #6
    ID : 7
    Format : AAC
    Format/Info : Advanced Audio Codec
    Format profile : LC
    Codec ID : 40
    Duration : 2h 1mn
    Bit rate mode : Variable
    Bit rate : 164 Kbps
    Maximum bit rate : 266 Kbps
    Channel(s) : 2 channels
    Channel positions : Front: L R
    Sampling rate : 48.0 KHz
    Frame rate : 46.875 fps (1024 spf)
    Compression mode : Lossy
    Stream size : 143 MiB (1%)
    Title : Russian MVO Lazer Video Stereo
    Language : Russian
    Default : No
    Alternate group : 1
    Encoded date : UTC 2016-04-04 11:20:15
    Tagged date : UTC 2016-04-04 11:20:20
    Audio #7
    ID : 8
    Format : AAC
    Format/Info : Advanced Audio Codec
    Format profile : LC
    Codec ID : 40
    Duration : 2h 1mn
    Bit rate mode : Variable
    Bit rate : 137 Kbps
    Maximum bit rate : 251 Kbps
    Channel(s) : 2 channels
    Channel positions : Front: L R
    Sampling rate : 48.0 KHz
    Frame rate : 46.875 fps (1024 spf)
    Compression mode : Lossy
    Stream size : 119 MiB (1%)
    Title : Russian MVO 1 Channel Stereo
    Language : Russian
    Default : No
    Alternate group : 1
    Encoded date : UTC 2016-04-04 11:38:48
    Tagged date : UTC 2016-04-04 11:38:53
    Audio #8
    ID : 9
    Format : AAC
    Format/Info : Advanced Audio Codec
    Format profile : LC
    Codec ID : 40
    Duration : 2h 1mn
    Bit rate mode : Variable
    Bit rate : 126 Kbps
    Maximum bit rate : 142 Kbps
    Channel(s) : 2 channels
    Channel positions : Front: L R
    Sampling rate : 48.0 KHz
    Frame rate : 46.875 fps (1024 spf)
    Compression mode : Lossy
    Stream size : 109 MiB (1%)
    Title : Russian MVO HTB Stereo
    Language : Russian
    Default : No
    Alternate group : 1
    Encoded date : UTC 2016-04-04 11:58:41
    Tagged date : UTC 2016-04-04 11:58:46
    Audio #9
    ID : 10
    Format : AAC
    Format/Info : Advanced Audio Codec
    Format profile : LC
    Codec ID : 40
    Duration : 2h 1mn
    Bit rate mode : Variable
    Bit rate : 144 Kbps
    Maximum bit rate : 168 Kbps
    Channel(s) : 2 channels
    Channel positions : Front: L R
    Sampling rate : 48.0 KHz
    Frame rate : 46.875 fps (1024 spf)
    Compression mode : Lossy
    Stream size : 124 MiB (1%)
    Title : Russian MVO Souz Video Stereo
    Language : Russian
    Default : No
    Alternate group : 1
    Encoded date : UTC 2016-04-04 13:46:29
    Tagged date : UTC 2016-04-04 13:46:35
    Audio #10
    ID : 11
    Format : AAC
    Format/Info : Advanced Audio Codec
    Format profile : LC
    Codec ID : 40
    Duration : 2h 1mn
    Bit rate mode : Variable
    Bit rate : 165 Kbps
    Maximum bit rate : 280 Kbps
    Channel(s) : 2 channels
    Channel positions : Front: L R
    Sampling rate : 48.0 KHz
    Frame rate : 46.875 fps (1024 spf)
    Compression mode : Lossy
    Stream size : 144 MiB (1%)
    Title : Russian AVO A.Gavrilov Stereo
    Language : Russian
    Default : No
    Alternate group : 1
    Encoded date : UTC 2016-04-04 14:21:04
    Tagged date : UTC 2016-04-04 14:21:10
    Fallback From : 24
    Audio #11
    ID : 12
    Format : AAC
    Format/Info : Advanced Audio Codec
    Format profile : LC
    Codec ID : 40
    Duration : 2h 1mn
    Bit rate mode : Variable
    Bit rate : 165 Kbps
    Maximum bit rate : 280 Kbps
    Channel(s) : 2 channels
    Channel positions : Front: L R
    Sampling rate : 48.0 KHz
    Frame rate : 46.875 fps (1024 spf)
    Compression mode : Lossy
    Stream size : 144 MiB (1%)
    Title : Russian AVO D.Esarev Stereo
    Language : Russian
    Default : No
    Alternate group : 1
    Encoded date : UTC 2016-04-04 19:48:36
    Tagged date : UTC 2016-04-04 19:48:41
    Fallback From : 25
    Audio #12
    ID : 13
    Format : AAC
    Format/Info : Advanced Audio Codec
    Format profile : LC
    Codec ID : 40
    Duration : 2h 1mn
    Bit rate mode : Variable
    Bit rate : 165 Kbps
    Maximum bit rate : 280 Kbps
    Channel(s) : 2 channels
    Channel positions : Front: L R
    Sampling rate : 48.0 KHz
    Frame rate : 46.875 fps (1024 spf)
    Compression mode : Lossy
    Stream size : 144 MiB (1%)
    Title : Russian AVO U.Zhivov Stereo
    Language : Russian
    Default : No
    Alternate group : 1
    Encoded date : UTC 2016-04-04 21:05:31
    Tagged date : UTC 2016-04-04 21:05:37
    Fallback From : 26
    Audio #13
    ID : 14
    Format : AAC
    Format/Info : Advanced Audio Codec
    Format profile : LC
    Codec ID : 40
    Duration : 2h 1mn
    Bit rate mode : Variable
    Bit rate : 165 Kbps
    Maximum bit rate : 280 Kbps
    Channel(s) : 2 channels
    Channel positions : Front: L R
    Sampling rate : 48.0 KHz
    Frame rate : 46.875 fps (1024 spf)
    Compression mode : Lossy
    Stream size : 144 MiB (1%)
    Title : Russian AVO E.Khustalev Stereo
    Language : Russian
    Default : No
    Alternate group : 1
    Encoded date : UTC 2016-04-07 07:44:40
    Tagged date : UTC 2016-04-07 07:44:45
    Fallback From : 27
    Audio #14
    ID : 15
    Format : AAC
    Format/Info : Advanced Audio Codec
    Format profile : LC
    Codec ID : 40
    Duration : 2h 1mn
    Bit rate mode : Variable
    Bit rate : 164 Kbps
    Maximum bit rate : 266 Kbps
    Channel(s) : 2 channels
    Channel positions : Front: L R
    Sampling rate : 48.0 KHz
    Frame rate : 46.875 fps (1024 spf)
    Compression mode : Lossy
    Stream size : 142 MiB (1%)
    Title : Russian AVO Dictor CDV Stereo
    Language : Russian
    Default : No
    Alternate group : 1
    Encoded date : UTC 2016-04-07 09:28:03
    Tagged date : UTC 2016-04-07 09:28:08
    Fallback From : 28
    Audio #15
    ID : 16
    Format : AAC
    Format/Info : Advanced Audio Codec
    Format profile : LC
    Codec ID : 40
    Duration : 2h 1mn
    Bit rate mode : Variable
    Bit rate : 137 Kbps
    Maximum bit rate : 228 Kbps
    Channel(s) : 2 channels
    Channel positions : Front: L R
    Sampling rate : 48.0 KHz
    Frame rate : 46.875 fps (1024 spf)
    Compression mode : Lossy
    Stream size : 119 MiB (1%)
    Title : Russian AVO A.Kashkin Stereo
    Language : Russian
    Default : No
    Alternate group : 1
    Encoded date : UTC 2016-04-07 12:39:09
    Tagged date : UTC 2016-04-07 12:40:15
    Audio #16
    ID : 17
    Format : AAC
    Format/Info : Advanced Audio Codec
    Format profile : LC
    Codec ID : 40
    Duration : 2h 1mn
    Bit rate mode : Variable
    Bit rate : 132 Kbps
    Maximum bit rate : 243 Kbps
    Channel(s) : 2 channels
    Channel positions : Front: L R
    Sampling rate : 48.0 KHz
    Frame rate : 46.875 fps (1024 spf)
    Compression mode : Lossy
    Stream size : 115 MiB (1%)
    Title : Russian AVO N.Antonov Stereo
    Language : Russian
    Default : No
    Alternate group : 1
    Encoded date : UTC 2016-04-07 12:39:09
    Tagged date : UTC 2016-04-07 12:40:15
    Audio #17
    ID : 18
    Format : AAC
    Format/Info : Advanced Audio Codec
    Format profile : LC
    Codec ID : 40
    Duration : 2h 1mn
    Bit rate mode : Variable
    Bit rate : 163 Kbps
    Maximum bit rate : 262 Kbps
    Channel(s) : 2 channels
    Channel positions : Front: L R
    Sampling rate : 48.0 KHz
    Frame rate : 46.875 fps (1024 spf)
    Compression mode : Lossy
    Stream size : 142 MiB (1%)
    Title : Ukrainian MVO 2+2 Stereo
    Language : Ukrainian
    Default : No
    Alternate group : 1
    Encoded date : UTC 2016-04-07 12:39:09
    Tagged date : UTC 2016-04-07 12:40:15
    Fallback From : 29
    Audio #18
    ID : 19
    Format : AAC
    Format/Info : Advanced Audio Codec
    Format profile : LC
    Codec ID : 40
    Duration : 2h 1mn
    Bit rate mode : Variable
    Bit rate : 161 Kbps
    Maximum bit rate : 265 Kbps
    Channel(s) : 2 channels
    Channel positions : Front: L R
    Sampling rate : 48.0 KHz
    Frame rate : 46.875 fps (1024 spf)
    Compression mode : Lossy
    Stream size : 140 MiB (1%)
    Title : Ukrainian MVO Stereo
    Language : Ukrainian
    Default : No
    Alternate group : 1
    Encoded date : UTC 2016-04-07 12:39:09
    Tagged date : UTC 2016-04-07 12:40:15
    Fallback From : 30
    Audio #19
    ID : 20
    Format : AAC
    Format/Info : Advanced Audio Codec
    Format profile : LC
    Codec ID : 40
    Duration : 2h 1mn
    Bit rate mode : Variable
    Bit rate : 166 Kbps
    Maximum bit rate : 280 Kbps
    Channel(s) : 2 channels
    Channel positions : Front: L R
    Sampling rate : 48.0 KHz
    Frame rate : 46.875 fps (1024 spf)
    Compression mode : Lossy
    Stream size : 144 MiB (1%)
    Title : English Stereo
    Language : English
    Default : No
    Alternate group : 1
    Encoded date : UTC 2016-04-07 12:39:09
    Tagged date : UTC 2016-04-07 12:40:15
    Fallback From : 31
    Subtitles : 32,37
    Audio #20
    ID : 21
    Format : AC-3
    Format/Info : Audio Coding 3
    Mode extension : CM (complete main)
    Format settings, Endianness : Big
    Codec ID : ac-3
    Duration : 2h 1mn
    Bit rate mode : Constant
    Bit rate : 640 Kbps
    Channel(s) : 6 channels
    Channel positions : Front: L C R, Side: L R, LFE
    Sampling rate : 48.0 KHz
    Frame rate : 31.250 fps (1536 spf)
    Bit depth : 16 bits
    Compression mode : Lossy
    Stream size : 556 MiB (4%)
    Title : Russian MVO R5 DD 5.1
    Language : Russian
    Default : No
    Alternate group : 1
    Encoded date : UTC 2016-04-07 12:50:46
    Tagged date : UTC 2016-04-07 13:05:15
    Fallback To : 3
    Audio #21
    ID : 22
    Format : AC-3
    Format/Info : Audio Coding 3
    Mode extension : CM (complete main)
    Format settings, Endianness : Big
    Codec ID : ac-3
    Duration : 2h 1mn
    Bit rate mode : Constant
    Bit rate : 640 Kbps
    Channel(s) : 6 channels
    Channel positions : Front: L C R, Side: L R, LFE
    Sampling rate : 48.0 KHz
    Frame rate : 31.250 fps (1536 spf)
    Bit depth : 16 bits
    Compression mode : Lossy
    Stream size : 556 MiB (4%)
    Title : Russian MVO LDV (S.R.I. / Kinomaniya) DD 5.1
    Language : Russian
    Default : No
    Alternate group : 1
    Encoded date : UTC 2016-04-07 12:50:46
    Tagged date : UTC 2016-04-07 13:05:15
    Fallback To : 4
    Audio #22
    ID : 23
    Format : AC-3
    Format/Info : Audio Coding 3
    Mode extension : CM (complete main)
    Format settings, Endianness : Big
    Codec ID : ac-3
    Duration : 2h 1mn
    Bit rate mode : Constant
    Bit rate : 640 Kbps
    Channel(s) : 6 channels
    Channel positions : Front: L C R, Side: L R, LFE
    Sampling rate : 48.0 KHz
    Frame rate : 31.250 fps (1536 spf)
    Bit depth : 16 bits
    Compression mode : Lossy
    Stream size : 556 MiB (4%)
    Title : Russian MVO FDV (Home Video) DD 5.1
    Language : Russian
    Default : No
    Alternate group : 1
    Encoded date : UTC 2016-04-07 12:50:46
    Tagged date : UTC 2016-04-07 13:05:15
    Fallback To : 5
    Audio #23
    ID : 24
    Format : AC-3
    Format/Info : Audio Coding 3
    Mode extension : CM (complete main)
    Format settings, Endianness : Big
    Codec ID : ac-3
    Duration : 2h 1mn
    Bit rate mode : Constant
    Bit rate : 640 Kbps
    Channel(s) : 6 channels
    Channel positions : Front: L C R, Side: L R, LFE
    Sampling rate : 48.0 KHz
    Frame rate : 31.250 fps (1536 spf)
    Bit depth : 16 bits
    Compression mode : Lossy
    Stream size : 556 MiB (4%)
    Title : Russian AVO A.Gavrilov DD 5.1
    Language : Russian
    Default : No
    Alternate group : 1
    Encoded date : UTC 2016-04-07 12:50:46
    Tagged date : UTC 2016-04-07 13:05:15
    Fallback To : 11
    Audio #24
    ID : 25
    Format : AC-3
    Format/Info : Audio Coding 3
    Mode extension : CM (complete main)
    Format settings, Endianness : Big
    Codec ID : ac-3
    Duration : 2h 1mn
    Bit rate mode : Constant
    Bit rate : 640 Kbps
    Channel(s) : 6 channels
    Channel positions : Front: L C R, Side: L R, LFE
    Sampling rate : 48.0 KHz
    Frame rate : 31.250 fps (1536 spf)
    Bit depth : 16 bits
    Compression mode : Lossy
    Stream size : 556 MiB (4%)
    Title : Russian AVO D.Esarev DD 5.1
    Language : Russian
    Default : No
    Alternate group : 1
    Encoded date : UTC 2016-04-07 12:50:46
    Tagged date : UTC 2016-04-07 13:05:15
    Fallback To : 12
    Audio #25
    ID : 26
    Format : AC-3
    Format/Info : Audio Coding 3
    Mode extension : CM (complete main)
    Format settings, Endianness : Big
    Codec ID : ac-3
    Duration : 2h 1mn
    Bit rate mode : Constant
    Bit rate : 640 Kbps
    Channel(s) : 6 channels
    Channel positions : Front: L C R, Side: L R, LFE
    Sampling rate : 48.0 KHz
    Frame rate : 31.250 fps (1536 spf)
    Bit depth : 16 bits
    Compression mode : Lossy
    Stream size : 556 MiB (4%)
    Title : Russian AVO U.Zhivov DD 5.1
    Language : Russian
    Default : No
    Alternate group : 1
    Encoded date : UTC 2016-04-07 12:50:46
    Tagged date : UTC 2016-04-07 13:05:15
    Fallback To : 13
    Audio #26
    ID : 27
    Format : AC-3
    Format/Info : Audio Coding 3
    Mode extension : CM (complete main)
    Format settings, Endianness : Big
    Codec ID : ac-3
    Duration : 2h 1mn
    Bit rate mode : Constant
    Bit rate : 640 Kbps
    Channel(s) : 6 channels
    Channel positions : Front: L C R, Side: L R, LFE
    Sampling rate : 48.0 KHz
    Frame rate : 31.250 fps (1536 spf)
    Bit depth : 16 bits
    Compression mode : Lossy
    Stream size : 556 MiB (4%)
    Title : Russian AVO E.Khustalev DD 5.1
    Language : Russian
    Default : No
    Alternate group : 1
    Encoded date : UTC 2016-04-07 12:50:46
    Tagged date : UTC 2016-04-07 13:05:15
    Fallback To : 14
    Audio #27
    ID : 28
    Format : AC-3
    Format/Info : Audio Coding 3
    Mode extension : CM (complete main)
    Format settings, Endianness : Big
    Codec ID : ac-3
    Duration : 2h 1mn
    Bit rate mode : Constant
    Bit rate : 384 Kbps
    Channel(s) : 6 channels
    Channel positions : Front: L C R, Side: L R, LFE
    Sampling rate : 48.0 KHz
    Frame rate : 31.250 fps (1536 spf)
    Bit depth : 16 bits
    Compression mode : Lossy
    Stream size : 334 MiB (3%)
    Title : Russian AVO Dictor CDV DD 5.1
    Language : Russian
    Default : No
    Alternate group : 1
    Encoded date : UTC 2016-04-07 12:50:46
    Tagged date : UTC 2016-04-07 13:05:14
    Fallback To : 15
    Audio #28
    ID : 29
    Format : AC-3
    Format/Info : Audio Coding 3
    Mode extension : CM (complete main)
    Format settings, Endianness : Big
    Codec ID : ac-3
    Duration : 2h 1mn
    Bit rate mode : Constant
    Bit rate : 384 Kbps
    Channel(s) : 6 channels
    Channel positions : Front: L C R, Side: L R, LFE
    Sampling rate : 48.0 KHz
    Frame rate : 31.250 fps (1536 spf)
    Bit depth : 16 bits
    Compression mode : Lossy
    Stream size : 334 MiB (3%)
    Title : Ukrainian MVO 2+2 DD 5.1
    Language : Ukrainian
    Default : No
    Alternate group : 1
    Encoded date : UTC 2016-04-07 12:50:46
    Tagged date : UTC 2016-04-07 13:05:15
    Fallback To : 18
    Audio #29
    ID : 30
    Format : AC-3
    Format/Info : Audio Coding 3
    Mode extension : CM (complete main)
    Format settings, Endianness : Big
    Codec ID : ac-3
    Duration : 2h 1mn
    Bit rate mode : Constant
    Bit rate : 384 Kbps
    Channel(s) : 6 channels
    Channel positions : Front: L C R, Side: L R, LFE
    Sampling rate : 48.0 KHz
    Frame rate : 31.250 fps (1536 spf)
    Bit depth : 16 bits
    Compression mode : Lossy
    Stream size : 334 MiB (3%)
    Title : Ukrainian MVO DD 5.1
    Language : Ukrainian
    Default : No
    Alternate group : 1
    Encoded date : UTC 2016-04-07 12:50:46
    Tagged date : UTC 2016-04-07 13:05:15
    Fallback To : 19
    Audio #30
    ID : 31
    Format : AC-3
    Format/Info : Audio Coding 3
    Mode extension : CM (complete main)
    Format settings, Endianness : Big
    Codec ID : ac-3
    Duration : 2h 1mn
    Bit rate mode : Constant
    Bit rate : 640 Kbps
    Channel(s) : 6 channels
    Channel positions : Front: L C R, Side: L R, LFE
    Sampling rate : 48.0 KHz
    Frame rate : 31.250 fps (1536 spf)
    Bit depth : 16 bits
    Compression mode : Lossy
    Stream size : 556 MiB (4%)
    Title : English DD 5.1
    Language : English
    Default : No
    Alternate group : 1
    Encoded date : UTC 2016-04-07 12:50:46
    Tagged date : UTC 2016-04-07 13:05:15
    Fallback To : 20
    Subtitles : 32,37
    Text #1
    ID : 32
    Format : Timed Text
    Muxing mode : sbtl
    Codec ID : tx3g
    Duration : 1h 52mn
    Bit rate mode : Variable
    Bit rate : 4 bps
    Stream size : 3.10 KiB (0%)
    Title : English Forced Subtitle
    Language : English
    Default : Yes
    Forced : Yes
    Alternate group : 2
    Encoded date : UTC 2016-04-08 06:56:27
    Tagged date : UTC 2016-04-08 06:56:27
    Subtitles For : 20,31
    Full Alternative : 37
    Text #2
    ID : 33
    Format : Timed Text
    Muxing mode : sbtl
    Codec ID : tx3g
    Duration : 1h 57mn
    Bit rate mode : Variable
    Bit rate : 58 bps
    Stream size : 50.4 KiB (0%)
    Title : Russian R5 Subtitle
    Language : Russian
    Default : No
    Forced : No
    Alternate group : 2
    Encoded date : UTC 2016-04-08 07:01:31
    Tagged date : UTC 2016-04-08 07:01:31
    Text #3
    ID : 34
    Format : Timed Text
    Muxing mode : sbtl
    Codec ID : tx3g
    Duration : 1h 57mn
    Bit rate mode : Variable
    Bit rate : 61 bps
    Stream size : 52.2 KiB (0%)
    Title : Russian Uncle KiLler Subtitle
    Language : Russian
    Default : No
    Forced : No
    Alternate group : 2
    Encoded date : UTC 2016-04-08 07:01:31
    Tagged date : UTC 2016-04-08 07:01:31
    Text #4
    ID : 35
    Format : Timed Text
    Muxing mode : sbtl
    Codec ID : tx3g
    Duration : 1h 56mn
    Bit rate mode : Variable
    Bit rate : 58 bps
    Stream size : 49.3 KiB (0%)
    Title : Russian Subtitle
    Language : Russian
    Default : No
    Forced : No
    Alternate group : 2
    Encoded date : UTC 2016-04-08 07:01:31
    Tagged date : UTC 2016-04-08 07:01:31
    Text #5
    ID : 36
    Format : Timed Text
    Muxing mode : sbtl
    Codec ID : tx3g
    Duration : 1h 57mn
    Bit rate mode : Variable
    Bit rate : 56 bps
    Stream size : 48.7 KiB (0%)
    Title : Ukrainian R5 Subtitle
    Language : Ukrainian
    Default : No
    Forced : No
    Alternate group : 2
    Encoded date : UTC 2016-04-08 07:01:31
    Tagged date : UTC 2016-04-08 07:01:31
    Text #6
    ID : 37
    Format : Timed Text
    Muxing mode : sbtl
    Codec ID : tx3g
    Duration : 1h 56mn
    Bit rate mode : Variable
    Bit rate : 39 bps
    Stream size : 33.4 KiB (0%)
    Title : English Subtitle
    Language : English
    Default : No
    Forced : No
    Alternate group : 2
    Encoded date : UTC 2016-04-08 07:01:31
    Tagged date : UTC 2016-04-08 07:01:31
    Subtitles For : 20,31
    Forced Alternative : 32
    Menu #1
    00:00:00.000 : Start
    00:07:01.796 : Team Dynamics
    00:10:28.961 : Botched Exchange
    00:15:23.339 : New Negotiations
    00:17:22.082 : Photographic Study
    00:18:55.050 : Remote Sensor Tracking
    00:24:12.784 : In Search Of Gregor
    00:26:20.662 : Answering To The Boss
    00:27:20.138 : Those Who Wait...
    00:31:22.171 : The Link To The Case
    00:33:54.490 : Ice-Skating Gala
    00:39:19.899 : Farewell
    00:41:19.351 : Bull's-Eye Bombing
    00:45:21.719 : Chasing The Target
    00:49:51.238 : Crashing The Case
    00:51:35.842 : Spiritual Doctor
    00:54:35.563 : "Life Is Uncertain"
    00:57:32.240 : Gregor's Icy Ring
    00:58:53.238 : "I Need Your Help!"
    01:01:21.344 : The Arena Massacre
    01:09:04.598 : Directing Surgery
    01:14:48.275 : Seamus' Hostility
    01:20:06.051 : Masterless Samurai
    01:24:01.494 : Fragile Hesitation
    01:27:05.345 : Chases To Die For
    01:35:04.323 : A Questionable Case
    01:39:31.924 : Scary Ice Skating
    01:45:25.110 : Gregor's Gunned Down
    01:49:22.264 : A Frenzy Of Fleeing
    01:51:49.411 : Showdown With Seamus
    01:53:46.402 : "Peaceful" Closure
    01:56:02.580 : Credits
    Menu #2
    ID : 38
    Codec ID : text
    Duration : 2h 1mn
    Title : Chapter Titles
    Language : English
    Encoded date : UTC 2016-04-08 07:01:57
    Tagged date : UTC 2016-04-08 07:01:57
    Menu For : 2,1
    00:00:00.000 : Start
    00:07:01.796 : Team Dynamics
    00:10:28.961 : Botched Exchange
    00:15:23.339 : New Negotiations
    00:17:22.082 : Photographic Study
    00:18:55.050 : Remote Sensor Tracking
    00:24:12.784 : In Search Of Gregor
    00:26:20.662 : Answering To The Boss
    00:27:20.138 : Those Who Wait...
    00:31:22.171 : The Link To The Case
    00:33:54.490 : Ice-Skating Gala
    00:39:19.899 : Farewell
    00:41:19.351 : Bull's-Eye Bombing
    00:45:21.719 : Chasing The Target
    00:49:51.238 : Crashing The Case
    00:51:35.842 : Spiritual Doctor
    00:54:35.563 : "Life Is Uncertain"
    00:57:32.240 : Gregor's Icy Ring
    00:58:53.238 : "I Need Your Help!"
    01:01:21.344 : The Arena Massacre
    01:09:04.598 : Directing Surgery
    01:14:48.275 : Seamus' Hostility
    01:20:06.051 : Masterless Samurai
    01:24:01.494 : Fragile Hesitation
    01:27:05.345 : Chases To Die For
    01:35:04.323 : A Questionable Case
    01:39:31.924 : Scary Ice Skating
    01:45:25.110 : Gregor's Gunned Down
    01:49:22.264 : A Frenzy Of Fleeing
    01:51:49.411 : Showdown With Seamus
    01:53:46.402 : "Peaceful" Closure
    01:56:02.580 : Credits
    Bit rate mode : VBR

    x264 лог 480p Release

    HandBrakeCLI -i "/Ronin.1998.BDRemux.HDCLUB/BDMV/STREAM/00000.m2ts" -t 1 -o "Ronin.480p.eng.m4v" -f mp4 -I -O -w 640 -l 360 --crop 134:134:0:0 --custom-anamorphic --modulus 4 --pixel-aspect 852:640 -e x264 -b 1600 -2 -a none -x cabac=0:ref=2:me=umh:bframes=0:weightp=0:subq=6:8x8dct=0:trellis=0:vbv-maxrate=5000:vbv-bufsize=5000 --verbose=1
    x264 [info]: frame I:2913  Avg QP:17.17  size: 29748  PSNR Mean Y:45.86 U:50.44 V:51.66 Avg:46.96 Global:46.55
    x264 [info]: frame P:171963 Avg QP:18.95  size:  7979  PSNR Mean Y:43.74 U:49.71 V:50.72 Avg:44.93 Global:44.58
    x264 [info]: mb I  I16..4: 15.1%  0.0% 84.9%
    x264 [info]: mb P  I16..4:  0.5%  0.0%  2.9%  P16..4: 49.5% 26.8% 11.0%  0.0%  0.0%    skip: 9.4%
    x264 [info]: coded y,uvDC,uvAC intra: 89.0% 73.5% 41.1% inter: 38.6% 19.4% 1.5%
    x264 [info]: i16 v,h,dc,p: 28% 14% 12% 47%
    x264 [info]: i4 v,h,dc,ddl,ddr,vr,hd,vl,hu: 26% 16% 16%  7%  8%  8%  7%  7%  6%
    x264 [info]: i8c dc,h,v,p: 54% 17% 23%  6%
    x264 [info]: ref P L0: 70.7% 29.3%
    x264 [info]: SSIM Mean Y:0.9767446 (16.335db)
    x264 [info]: PSNR Mean Y:43.773 U:49.725 V:50.738 Avg:44.968 Global:44.604 kb/s:1600.05

    x264 лог 720p Release

    HandBrakeCLI -i "/Ronin.1998.BDRemux.HDCLUB/BDMV/STREAM/00000.m2ts" -t 1 -o "Ronin.720p.eng.m4v" -f mp4 -4 -O -w 1280 -l 544 --crop 134:134:0:0 --modulus 16 -e x264 -b 5000 -2 -a none -x cabac=0:ref=3:me=umh:b-pyramid=none:b-adapt=2:weightb=0:trellis=0:weightp=0:vbv-maxrate=9500:vbv-bufsize=9500:subq=9:merange=32:deblock=-3,-2:qcomp=0.80:qpmin=0:qpmax=69:fast_pskip=0:aq-strength=0.5:no-dct-decimate=1:psy-rd=0.80,0.25:ipratio=1.1:pbratio=1.1:deadzone-inter=6:deadzone-intra=6 --verbose=1
    x264 [info]: frame I:1871  Avg QP:20.14  size: 68498  PSNR Mean Y:44.98 U:50.04 V:51.70 Avg:46.17 Global:45.94
    x264 [info]: frame P:54205 Avg QP:20.88  size: 44985  PSNR Mean Y:44.33 U:49.94 V:51.53 Avg:45.53 Global:45.22
    x264 [info]: frame B:118800 Avg QP:22.04  size: 16738  PSNR Mean Y:43.01 U:49.75 V:51.46 Avg:44.34 Global:44.04
    x264 [info]: consecutive B-frames:  2.1% 10.7% 34.1% 53.2%
    x264 [info]: mb I  I16..4:  4.4% 72.5% 23.1%
    x264 [info]: mb P  I16..4:  1.0% 12.8%  3.1%  P16..4: 45.6% 24.5%  9.8%  0.0%  0.0%    skip: 3.2%
    x264 [info]: mb B  I16..4:  0.1%  1.5%  0.4%  B16..8: 31.4% 10.6%  1.6%  direct: 8.9%  skip:45.5%  L0:34.8% L1:34.9% BI:30.3%
    x264 [info]: 8x8 transform intra:75.0% inter:44.2%
    x264 [info]: coded y,uvDC,uvAC intra: 95.0% 60.0% 19.6% inter: 46.3% 14.4% 2.0%
    x264 [info]: i16 v,h,dc,p: 25% 14%  8% 54%
    x264 [info]: i8 v,h,dc,ddl,ddr,vr,hd,vl,hu:  8% 10%  5% 11% 15% 14% 14% 11% 11%
    x264 [info]: i4 v,h,dc,ddl,ddr,vr,hd,vl,hu:  9% 12%  3% 11% 16% 15% 14% 10%  9%
    x264 [info]: i8c dc,h,v,p: 51% 20% 21%  9%
    x264 [info]: ref P L0: 67.5% 20.4% 12.1%
    x264 [info]: ref B L0: 80.6% 19.4%
    x264 [info]: SSIM Mean Y:0.9674875 (14.879db)
    x264 [info]: PSNR Mean Y:43.442 U:49.815 V:51.485 Avg:44.728 Global:44.392 kb/s:4996.09

    Скриншоты 480p Release

    Скриншоты 720p Release


    -
    Цитата:
    Цитата:

    Роли озвучивали:
    R5: Сергей Смирнов, Евгений Хазов, Ольга Зюзина
    LDV (С.Р.И. / Киномания): Александр Груздев, Александр Быков, Ирина Маликова
    FDV (Домашнее видео): Павел Кипнис, Сергей Казаков, Нина Лунева
    Варус видео: Вадим Андреев, Никита Прозоровский, Анна Каменкова
    Лазер видео: Александр Новиков, Сергей Чекан, Мария Овчинникова
    Первый Канал: Олег Форостенко, Владимир Ферапонтов, Андрей Казанцев, Елена Борзунова
    НТВ: Александр Груздев, Александр Котов, Олег Вирозуб, Светлана Старикова
    Союз Видео: Владимир Вихров, Людмила Ильина
    -

    Релиз подготовлен для просмотра на Apple TV, iPad, iPhone, iPod Touch.
    Для просмотра данного релиза на компьютере с ОС Windows рекомендуется использовать VLC media player
    Скачать .torrent

    Скачать торрент-файл бесплатно и на максимальной скорости!

    Как скачивать? · Что такое торрент? · Рейтинг и ограничения

    !ВНИМАНИЕ!
    Сайт не распространяет и не хранит электронные версии произведений, а занимается лишь лишь предоставлением доступа к создаваемому пользователями каталогу ссылок на торрент-файлы, которые содержат только списки хеш-сумм, убедительная просьба с жалобами обращаться напрямую к пользователю. Файлы для обмена на трекере предоставлены пользователями сайта, и администрация не несёт ответственности за их содержание. Просьба не заливать файлы, защищенные авторскими правами, а также файлы нелегального содержания!


    _________________
    [Профиль] [ЛС]
    Показать сообщения:    
    Ответить на тему

    Текущее время: Сегодня, в 11:02

    Часовой пояс: GMT + 2



    Вы не можете начинать темы
    Вы не можете отвечать на сообщения
    Вы не можете редактировать свои сообщения
    Вы не можете удалять свои сообщения
    Вы не можете голосовать в опросах
    Вы не можете прикреплять файлы к сообщениям
    Вы не можете скачивать файлы