BitTorrentTracker PerecTracker.org
BitTorrentTracker PerecTracker.org
    
Регистрация  ·  Вход
 
 · 
Забыли пароль?

  • Плутон / Pluto / Myeongwangsong (Син Со Вон / Shin Su-won) [2012, Южная Корея, драма, детектив, HDRip] DVO

    Ответить на тему
     
    Автор Сообщение

    Columb

    Создавать темы 16-Фев-2014 12:09

           

    [Цитировать]

    Плутон / Pluto / Myeongwangsong
    Страна: Южная Корея
    Жанр: драма, детектив
    Год выпуска: 2012
    Продолжительность: 01:47:28-Перевод: Любительский (двухголосый закадровый) den904 & DeadSno
    Cубтитры: нет
    Оригинальная аудиодорожка: нет-Режиссер: Син Со Вон / Shin Su-won
    В ролях: Дэвид Ли, Сон Чжун, Ким ККопи, Ким Кон, Сон Чжу А-Описание: Ючжин был найдён мёртвым на горе за своей школой. Чжун его сосед по комнате становится подозреваемым в его убийстве, из-за его мобильного телефона, который был найден на месте убийства....--Релиз группы
    -Качество видео: HDRip
    Формат видео: AVI
    Видео: XviD, 720x384 (1.88:1), 23.976 fps, 1746 kbps avg, 0.26 bit/pixel
    Аудио: Русский MPEG layer 3, 2 ch, 48 khz, 192 kbps-

    Доп. информация

    Переводчик: Ками
    Рип: Public Enemy (((
    Постер: Public Enemy (((

    MediaInfo

    Format : AVI
    Format/Info : Audio Video Interleave
    File size : 1.46 GiB
    Duration : 1h 47mn
    Overall bit rate : 1 948 Kbps
    Writing application : VirtualDubMod 1.5.10.3 | www.virtualdub-fr.org || (build 2550/release)
    Writing library : VirtualDubMod build 2550/release
    Video
    ID : 0
    Format : MPEG-4 Visual
    Format profile : Advanced Simple@L5
    Format settings, BVOP : 1
    Format settings, QPel : No
    Format settings, GMC : No warppoints
    Format settings, Matrix : Custom
    Codec ID : XVID
    Codec ID/Hint : XviD
    Duration : 1h 47mn
    Bit rate : 1 747 Kbps
    Width : 720 pixels
    Height : 384 pixels
    Display aspect ratio : 1.875
    Frame rate : 23.976 fps
    Color space : YUV
    Chroma subsampling : 4:2:0
    Bit depth : 8 bits
    Scan type : Progressive
    Compression mode : Lossy
    Bits/(Pixel*Frame) : 0.264
    Stream size : 1.31 GiB (90%)
    Writing library : XviD 73
    Audio
    ID : 1
    Format : MPEG Audio
    Format version : Version 1
    Format profile : Layer 3
    Codec ID : 55
    Codec ID/Hint : MP3
    Duration : 1h 47mn
    Bit rate mode : Constant
    Bit rate : 192 Kbps
    Channel(s) : 2 channels
    Sampling rate : 44.1 KHz
    Compression mode : Lossy
    Stream size : 148 MiB (10%)
    Alignment : Split accross interleaves
    Interleave, duration : 42 ms (1.00 video frame)
    Interleave, preload duration : 500 ms

    Скриншот с названием

    Скриншоты

    Скачать .torrent

    Скачать торрент-файл бесплатно и на максимальной скорости!

    Как скачивать? · Что такое торрент? · Рейтинг и ограничения

    !ВНИМАНИЕ!
    Сайт не распространяет и не хранит электронные версии произведений, а занимается лишь лишь предоставлением доступа к создаваемому пользователями каталогу ссылок на торрент-файлы, которые содержат только списки хеш-сумм, убедительная просьба с жалобами обращаться напрямую к пользователю. Файлы для обмена на трекере предоставлены пользователями сайта, и администрация не несёт ответственности за их содержание. Просьба не заливать файлы, защищенные авторскими правами, а также файлы нелегального содержания!

    [Профиль] [ЛС]
    Показать сообщения:    
    Ответить на тему

    Текущее время: Сегодня, в 16:08

    Часовой пояс: GMT + 2



    Вы не можете начинать темы
    Вы не можете отвечать на сообщения
    Вы не можете редактировать свои сообщения
    Вы не можете удалять свои сообщения
    Вы не можете голосовать в опросах
    Вы не можете прикреплять файлы к сообщениям
    Вы не можете скачивать файлы