BitTorrentTracker PerecTracker.org
BitTorrentTracker PerecTracker.org
    
Регистрация  ·  Вход
 
 · 
Забыли пароль?

  • Каджаки: Правдивая история / Kajaki (Пол Катис / Paul Katis) [2014, Великобритания, Иордания, триллер, драма, приключения, военный, HDRip] DVO

    Ответить на тему
     
    Автор Сообщение

    Light

    Создавать темы 18-Май-2016 09:20

           

    [Цитировать]

    Каджаки: Правдивая история / Kajaki
    Страна: Великобритания / Иордания
    Жанр: Триллер, драма, приключения, военный
    Год выпуска: 2014
    Продолжительность: 01:48:15
    Перевод: Любительский (двухголосый) ColdFilm
    Cубтитры: нет
    Режиссер: Пол Катис / Paul Katis
    В ролях: Марк Стэнли, Дэвид Эллиот, Малачи Кирби, Пол Любке, Скотт Кайл, Бенжамин О'Махони, Энди Гиббинс, Али Кук, Роберт Митчелл, Грант Килбёрн
    Описание: Действия картины разворачиваются в Афганистане. Немногочисленная группа британских военных, действуя согласно секретному приказу командования, занимает стратегическую высоту под названием "Афины". Расположившись неподалеку от не менее важного стратегического объекта дамбы "Каджаки", солдаты надеются на надежность своего укрытия и перерыв в боевых действиях.
    Но затишье длилось лишь до наступления темноты. Ночью отряд был обстрелян с применением запрещенного в большинстве стран оружия. Атаку удалось отбить, и на рассвете небольшая группа солдат отправилась на разведку к ближайшему посту Афганской Национальной Армии. Все указывало на то, что правые талибы миновали пропускной пункт и устроили на британцев засаду. Но мнение отряда кардинально меняется в тот момент, когда один из военнослужащих подрывается на мине российского образца.
    Теперь война для отряда становится еще опасней, ведь не ясно с какой стороны их может поджидать опасность. Те, кого еще вчера они считали своими союзниками, сегодня могут стать злейшими врагами.
    Внимание : - присутствует ненормативная лексика.
    Сэмпл: http://multi-up.com/1101477
    Качество видео: HDRip
    Формат видео: AVI
    Видео: XviD 1.2.1, 720x304, (2,35:1), 24,000 fps, 1606 Кбит/с, 8 бит
    Аудио: Русский (AC-3, 2 ch (Front: L R), 48,0 KHz, 192 Kbps)

    MediaInfo

    Общее
    Полное имя : F:\Видеофильмы\В и д е о\Каджаки Правдивая история (боевик военный 2014г).avi
    Формат : AVI
    Формат/Информация : Audio Video Interleave
    Размер файла : 1,37 Гбайт
    Продолжительность : 1 ч. 48 м.
    Общий поток : 1808 Кбит/сек
    Программа кодирования : VirtualDubMod 1.5.10.2 (build 2540/release)
    Библиотека кодирования : VirtualDubMod build 2540/release
    Видео
    Идентификатор : 0
    Формат : MPEG-4 Visual
    Профиль формата : Advanced Simple@L5
    Параметр BVOP формата : 2
    Параметр QPel формата : Нет
    Параметр GMC формата : Без точки перехода
    Параметр матрицы формата : Default (MPEG)
    Идентификатор кодека : XVID
    Идентификатор кодека/Подсказка : XviD
    Продолжительность : 1 ч. 48 м.
    Битрейт : 1606 Кбит/сек
    Ширина : 720 пикселей
    Высота : 304 пикселя
    Соотношение сторон : 2,35:1
    Частота кадров : 24,000 кадра/сек
    Цветовое пространство : YUV
    Субдискретизация насыщенности : 4:2:0
    Битовая глубина : 8 бит
    Тип развёртки : Прогрессивная
    Метод сжатия : С потерями
    Бит/(Пиксели*Кадры) : 0.306
    Размер потока : 1,21 Гбайт (89%)
    Библиотека кодирования : XviD 1.2.1 (UTC 2008-12-04)
    Аудио
    Идентификатор : 1
    Формат : AC-3
    Формат/Информация : Audio Coding 3
    Расширение режима : CM (complete main)
    Параметр Endianness формата : Big
    Идентификатор кодека : 2000
    Продолжительность : 1 ч. 48 м.
    Вид битрейта : Постоянный
    Битрейт : 192 Кбит/сек
    Каналы : 2 канала
    Расположение каналов : Front: L R
    Частота : 48,0 КГц
    Частота кадров : 31,250 кадров/сек (1536 spf)
    Метод сжатия : С потерями
    Размер потока : 149 Мбайт (11%)
    Выравнивание : Разделение по промежуткам
    Продолжительность промежутка : 42 мс. (1,00 видеокадр)
    Время предзагрузки промежутка : 500 мс.

    Скриншот c названием фильма

    Скриншоты

    Скачать .torrent

    Скачать торрент-файл бесплатно и на максимальной скорости!

    Как скачивать? · Что такое торрент? · Рейтинг и ограничения

    !ВНИМАНИЕ!
    Сайт не распространяет и не хранит электронные версии произведений, а занимается лишь лишь предоставлением доступа к создаваемому пользователями каталогу ссылок на торрент-файлы, которые содержат только списки хеш-сумм, убедительная просьба с жалобами обращаться напрямую к пользователю. Файлы для обмена на трекере предоставлены пользователями сайта, и администрация не несёт ответственности за их содержание. Просьба не заливать файлы, защищенные авторскими правами, а также файлы нелегального содержания!


    _________________
    [Профиль] [ЛС]
    Показать сообщения:    
    Ответить на тему

    Текущее время: Сегодня, в 02:37

    Часовой пояс: GMT + 2



    Вы не можете начинать темы
    Вы не можете отвечать на сообщения
    Вы не можете редактировать свои сообщения
    Вы не можете удалять свои сообщения
    Вы не можете голосовать в опросах
    Вы не можете прикреплять файлы к сообщениям
    Вы не можете скачивать файлы