Register  ·  Log in
Forgot password?

  • Гордость и предубеждение и зомби / Pride and Prejudice and Zombies (2015) HDRip | D | звук с CAMRip

    Reply to topic
    Author Message


    Post 18-May-2016 07:30



    Гордость и предубеждение и зомби / Pride and Prejudice and Zombies
    Страна: Великобритания США
    Производство: Allison Shearmur Productions, Cross Creek Pictures, Handsomecharlie Films, Lionsgate, MadRiver Pictures
    Год выпуска: 2015
    Жанр: ужасы, боевик, мелодрама
    Продолжительность: 01:42:32
    Режиссер: Бёрр Стирс
    Авторы сценария: Бёрр Стирс, Джейн Остин, Сет Грэм-Смит
    В ролях: Лили Джеймс, Сэм Райли, Белла Хиткот, Элли Бамбер, Милли Брэйди, Сьюки Уотерхаус, Дуглас Бут, Сэлли Филлипс
    Описание: Англия, XIX век. Элизабет Беннет и её сестры вынуждены противостоять заполонившим Англию ходячим мертвецам, а так же девушки сталкиваются с давлением необходимости найти себе мужей...

    Перевод: Профессиональный (полное дублирование) | звук с CAMRip
    Субтитры: нет-Качество: HDRip
    Формат: АVI
    Видео кодек: XviD
    Аудио кодек: АС3
    Видео: 720x304 (2.35:1), 23.976 fps, XviD ~1 057 kbps avg, 0.201 bit/pixel
    Аудио: 48.0 kHz, AC3 Dolby Digital, 2/0 (L,R) ch, ~128 kbps
    Дата премьеры (мир): 21 января 2016
    Дата премьеры (РФ): 18 февраля 2016, «Централ Партнершип»

    Media Info

    Format : AVI
    Format/Info : Audio Video Interleave
    Overall bit rate : 1 196 Kbps
    Movie name : G0Pd0Ct.i.30mbi.2016.Dt.HDRip.1.46Gb
    Writing application : VirtualDubMod | (build 2550/release)
    Writing library : VirtualDubMod build 2550/release
    Original source form/Name : Movie
    ID : 0
    Format : MPEG-4 Visual
    Format profile : Advanced Simple@L5
    Format settings, BVOP : 2
    Format settings, QPel : No
    Format settings, GMC : No warppoints
    Format settings, Matrix : Default (MPEG)
    Codec ID : XVID
    Codec ID/Hint : XviD
    Bit rate : 1 057 Kbps
    Width : 720 pixels
    Height : 304 pixels
    Display aspect ratio : 2.35:1
    Frame rate : 23.976 fps
    Color space : YUV
    Chroma subsampling : 4:2:0
    Bit depth : 8 bits
    Scan type : Progressive
    Compression mode : Lossy
    Bits/(Pixel*Frame) : 0.201
    Stream size : 7.18 MiB (88%)
    Writing library : XviD 1.2.1 (UTC 2008-12-04)
    ID : 1
    Format : AC-3
    Format/Info : Audio Coding 3
    Mode extension : CM (complete main)
    Format settings, Endianness : Big
    Codec ID : 2000
    Bit rate mode : Constant
    Bit rate : 128 Kbps
    Channel(s) : 2 channels
    Channel positions : Front: L R
    Sampling rate : 48.0 KHz
    Compression mode : Lossy
    Stream size : 890 KiB (11%)
    Alignment : Split accross interleaves
    Interleave, duration : 42 ms (1.01 video frame)
    Interleave, preload duration : 500 ms


    Download .torrent

    Download free and at maximum speed!

    How to Download? · What is a torrent? · Ratings and Limitations

    The site does not extend and does not store electronic(digital) versions of products, and only gives access to a reference catalogue created by users on torrent-files which contain only lists of the hash-sums, the earnest entreaty, with complaints(abuse) to access directly to the user. Files for an exchange on tracker are given by users of a site, and the administration does not bear the responsibility for their maintenance. The request to not fill in the files protected by copyrights, and also files of the illegal maintenance!

    [Profile] [PM]
    Display posts from previous:    
    Reply to topic

    The time now is: Today 01:36

    All times are GMT + 3 Hours

    You cannot post new topics in this forum
    You cannot reply to topics in this forum
    You cannot edit your posts in this forum
    You cannot delete your posts in this forum
    You cannot vote in polls in this forum
    You cannot attach files in this forum
    You cannot download files in this forum