Register  ·  Log in
Forgot password?

  • Преступник / Criminal (2016) ТС | D | звук с CAMRip

    Reply to topic
    Author Message


    Post 17-May-2016 22:30



    Преступник / Criminal
    Страна: Великобритания США
    Производство: Lionsgate, Millennium Films, Campbell Grobman Films, BenderSpink
    Год выпуска: 2016
    Жанр: фантастика, боевик, триллер, драма, криминал, детектив
    Продолжительность: 01:52:50
    Режиссер: Ариэль Вромен
    Авторы сценария: Дуглас Кук, Дэвид Уайсберг
    В ролях: Кевин Костнер, Гари Олдман, Томми Ли Джонс, Райан Рейнольдс, Элис Ив, Галь Гадот, Хорди Молья, Майкл Питт
    Описание: В последней отчаянной попытке остановить катастрофу мирового масштаба генетики осуществляют невероятную операцию по вживлению воспоминаний и умений погибшего оперативника ЦРУ в тело опасного заключенного с надеждой, что тот доведет до конца прерванную миссию агента...

    Перевод: Профессиональный (полное дублирование) | звук с CAMRip
    Субтитры: нет-Качество: Telecine
    Формат: АVI
    Видео кодек: XviD
    Аудио кодек: АС3
    Видео: 720x304 (2.35:1), 29.970 fps, XviD ~2 442 kbps avg, 0.372 bit/pixel
    Аудио: 48.0 kHz, AC3 Dolby Digital, 2/0 (L,R) ch, ~128 kbps
    Дата премьеры (мир): 7 апреля 2016
    Дата премьеры (РФ): 14 апреля 2016, «MEGOGO Distribution»

    Media Info

    Format : AVI
    Format/Info : Audio Video Interleave
    File size : 24.5 MiB
    Overall bit rate : 2 583 Kbps
    Movie name : PrectypH1k.2016.D.TC.1.46GB
    Writing application : VirtualDubMod | (build 2550/release)
    Writing library : VirtualDubMod build 2550/release
    Copyright : MoreFilms
    ID : 0
    Format : MPEG-4 Visual
    Format profile : Advanced Simple@L5
    Format settings, BVOP : 2
    Format settings, QPel : No
    Format settings, GMC : No warppoints
    Format settings, Matrix : Default (MPEG)
    Codec ID : XVID
    Codec ID/Hint : XviD
    Bit rate : 2 442 Kbps
    Width : 720 pixels
    Height : 304 pixels
    Display aspect ratio : 2.35:1
    Frame rate : 29.970 fps
    Color space : YUV
    Chroma subsampling : 4:2:0
    Bit depth : 8 bits
    Scan type : Progressive
    Compression mode : Lossy
    Bits/(Pixel*Frame) : 0.372
    Stream size : 23.1 MiB (95%)
    Writing library : XviD 1.2.1 (UTC 2008-12-04)
    ID : 1
    Format : AC-3
    Format/Info : Audio Coding 3
    Mode extension : CM (complete main)
    Format settings, Endianness : Big
    Codec ID : 2000
    Bit rate mode : Constant
    Bit rate : 128 Kbps
    Channel(s) : 2 channels
    Channel positions : Front: L R
    Sampling rate : 48.0 KHz
    Compression mode : Lossy
    Delay relative to video : 20ms
    Stream size : 1.21 MiB (5%)
    Alignment : Split accross interleaves
    Interleave, duration : 34 ms (1.01 video frame)
    Interleave, preload duration : 500 ms


    Download .torrent

    Download free and at maximum speed!

    How to Download? · What is a torrent? · Ratings and Limitations

    The site does not extend and does not store electronic(digital) versions of products, and only gives access to a reference catalogue created by users on torrent-files which contain only lists of the hash-sums, the earnest entreaty, with complaints(abuse) to access directly to the user. Files for an exchange on tracker are given by users of a site, and the administration does not bear the responsibility for their maintenance. The request to not fill in the files protected by copyrights, and also files of the illegal maintenance!

    [Profile] [PM]
    Display posts from previous:    
    Reply to topic

    The time now is: Today 16:59

    All times are GMT + 3 Hours

    You cannot post new topics in this forum
    You cannot reply to topics in this forum
    You cannot edit your posts in this forum
    You cannot delete your posts in this forum
    You cannot vote in polls in this forum
    You cannot attach files in this forum
    You cannot download files in this forum