Register  ·  Log in
Forgot password?

  • Армия Франкенштейна / Frankenstein\'s Army (Ричард Рапхорст / Richard Raaphorst) [2013, США, Нидерланды, Чехия, ужасы, фантастика, боевик, BDRip] VO

    Reply to topic
    Author Message


    Post 17-May-2016 13:47



    Армия Франкенштейна / Frankenstein's Army--Страна: США, Нидерланды, Чехия
    Жанр: ужасы, фантастика, боевик
    Продолжительность: 01:24:03
    Год выпуска: 2013
    -Перевод: Одноголосый, закадровый
    Субтитры: нет
    Режиссёр: Ричард Рапхорст / Richard Raaphorst
    -В ролях:
    Роберт Гвилим, Хон Пинг Тэнг, Александр Меркюри, Люк Ньюберри, Джошуа Зассе, Марк Стивенсон, Андрей Заяц, Карел Роден, Клаус Лукас, Кристина Каталина
    Конец Великой Отечественной войны. Русские солдаты уже ступают по территории Германии. Случайно они находят тайную нацистскую лабораторию, в которой по записям доктора Франкенштейна гитлеровцы вовсю экспериментировали с мертвой и живой плотью и создавали армию суперсолдат — последняя и отчаяная попытка Гитлера избежать поражения в войне…
    -Релиз групп All Films и RGСэмпл:Качество: BDRip - Исходник (Спасибо Мигель Шапкин)
    Формат: AVI
    Видео: 688x384 (1.79:1), 23.976 fps, XviD build 73 ~1032 kbps avg, 0.16 bit/pixel
    Аудио: 48 kHz, AC3 Dolby Digital, 2/0 (L,R) ch, ~192 kbps

    Отчёт MediaInfo

    Complete name : C:\Users\Максим\Desktop\Armija.Frankenshteina.2013.BDRip.745.polkera.avi
    Format : AVI
    Format/Info : Audio Video Interleave
    File size : 742 MiB
    Duration : 1h 24mn
    Overall bit rate : 1 234 Kbps
    Writing application : VirtualDubMod | || (build 2550/release)
    Writing library : VirtualDubMod build 2550/release
    Format : MPEG-4 Visual
    Format profile : Streaming Video@L1
    Format settings, BVOP : Yes
    Format settings, QPel : No
    Format settings, GMC : No warppoints
    Format settings, Matrix : Custom
    Codec ID : XVID
    Codec ID/Hint : XviD
    Duration : 1h 24mn
    Bit rate : 1 033 Kbps
    Width : 688 pixels
    Height : 384 pixels
    Display aspect ratio : 16/9
    Frame rate : 23.976 fps
    Resolution : 24 bits
    Colorimetry : 4:2:0
    Scan type : Progressive
    Bits/(Pixel*Frame) : 0.163
    Stream size : 621 MiB (84%)
    Writing library : XviD 73
    Format : AC-3
    Format/Info : Audio Coding 3
    Codec ID : 2000
    Duration : 1h 24mn
    Bit rate mode : Constant
    Bit rate : 192 Kbps
    Channel(s) : 2 channels
    Channel positions : L R
    Sampling rate : 48.0 KHz
    Stream size : 115 MiB (16%)
    Alignment : Split accross interleaves
    Interleave, duration : 42 ms (1.00 video frame)
    Interleave, preload duration : 500 ms



    Download .torrent

    Download free and at maximum speed!

    How to Download? · What is a torrent? · Ratings and Limitations

    The site does not extend and does not store electronic(digital) versions of products, and only gives access to a reference catalogue created by users on torrent-files which contain only lists of the hash-sums, the earnest entreaty, with complaints(abuse) to access directly to the user. Files for an exchange on tracker are given by users of a site, and the administration does not bear the responsibility for their maintenance. The request to not fill in the files protected by copyrights, and also files of the illegal maintenance!

    [Profile] [PM]
    Display posts from previous:    
    Reply to topic

    The time now is: Today 20:23

    All times are GMT + 3 Hours

    You cannot post new topics in this forum
    You cannot reply to topics in this forum
    You cannot edit your posts in this forum
    You cannot delete your posts in this forum
    You cannot vote in polls in this forum
    You cannot attach files in this forum
    You cannot download files in this forum